<?xml version="1.0" standalone="no"?>
<!DOCTYPE svg PUBLIC "-//W3C//DTD SVG 1.1//EN" "http://www.w3.org/Graphics/SVG/1.1/DTD/svg11.dtd" >
<svg xmlns="http://www.w3.org/2000/svg" xmlns:xlink="http://www.w3.org/1999/xlink" version="1.1">
<metadata>
Created by FontForge 20170731 at Thu Aug  9 09:59:01 2018
 By Aleksey,,,
</metadata>
<defs>
<font id="icofont" horiz-adv-x="1000" >
  <font-face 
    font-family="IcoFont"
    font-weight="400"
    font-stretch="normal"
    units-per-em="1000"
    panose-1="2 0 5 3 0 0 0 0 0 0"
    ascent="850"
    descent="-150"
    bbox="-0.909091 -150.643 1008 850.6"
    underline-thickness="0"
    underline-position="10"
    unicode-range="U+E800-F02E"
  />
<missing-glyph 
 />
    <glyph glyph-name=".notdef" 
 />
    <glyph glyph-name=".null" horiz-adv-x="0" 
 />
    <glyph glyph-name="nonmarkingreturn" 
 />
    <glyph glyph-name="angry-monster" unicode="&#xe800;" 
d="M200 263q0 -11 5 -12.5t8.5 0.5t4.5 6q5 14 17 25q9 7 26 15q-23 -1 -48 -13q-14 -7 -13 -21zM163 385q-2 4 -6.5 5t-9.5 -1q-8 -3 -8 -14q0 -15 15 -23q52 -24 88 -24h3q6 0 9 1q6 2 9 8q-37 -3 -59 6q-28 11 -41 42zM226 306h3q8 0 13 1q8 3 15 12q-22 -5 -61 -3
q-25 1 -38 0q-24 -3 -31 -24q-4 -10 4 -15q4 -2 8 -1t6 4q14 17 36 23q13 3 42 3h3zM865 657l3 12q5 26 6 39q2 22 -4 40q-9 32 -33 38t-45 -20q-28 -30 -31 -78q-7 -76 -18 -228l-9 -114q-6 -57 -17 -155q-1 -13 -6.5 -16.5t-18.5 0.5l-3 1q-28 12 -43 16q-25 6 -46 3
q-32 -4 -72 -4h-17q-23 -1 -34 0q-22 1 -33 28q-8 15 8 29q83 76 79 186q0 7 2.5 11t8.5 5q25 8 38 33q13 23 11 49t-18.5 43.5t-41 22t-49.5 -6.5l-2 -1q-6 -3 -9.5 -3.5t-9.5 3.5q-24 18 -61 25t-74 1t-62 -24q-6 -5 -12.5 -6.5t-15.5 -1.5q-32 0 -52.5 -18.5t-21.5 -49.5
q-1 -33 17.5 -54.5t51.5 -23.5q30 -2 40 -27l4 -7q9 -20 16 -27q49 -51 12 -120q-13 -25 -4 -40t38.5 -16.5t61.5 12.5l3 1q9 5 13 0t-2 -16v-1q-2 -8 -5 -11q-13 -13 -17 -31q-3 -15 -1 -35q3 -37 -17 -61q-25 -33 -10 -66q8 -17 4 -26.5t-22 -17.5l-4 -2q-8 -3 -12 -6
q-7 -4 -10 -10t-2.5 -9t6.5 -4q11 -2 28 6t31 20t17 23l1 3q1 8 3 11q3 6 9.5 7t11.5 -4q2 -3 6 -11l7 -16q8 -21 26 -32q15 -9 39 -12h3q10 -1 12 4t0 8t-6 6l-12 8q-38 21 -35 69q3 31 33 35q20 2 54 -8q29 -9 47 -11q25 -3 46 3q11 3 19 -1q4 -3 11 -13l3 -4q6 -9 3 -16
q-2 -5 -10 -12q-4 -4 -12 -10l-9 -6q-18 -15 -3 -32q7 -9 28 -11.5t31.5 4t11.5 15.5q1 5 -2 17l-2 7q-3 17 -1 25q3 13 17 22.5t13 19t-17 17.5l-3 2q-4 2 -5.5 3.5t0.5 4.5l1 3q3 9 8.5 10.5t14.5 4.5l5 1q26 7 27 30q2 14 -3.5 23.5t-17.5 13.5q-9 3 -10 9q-1 3 1 11l1 5
q14 56 43 167q56 213 78 320zM505 558q19 0 36 -14.5t16 -30.5q-1 -13 -12.5 -23t-25.5 -11q-18 0 -33 14.5t-14.5 31t9.5 25t24 8.5zM283 511q-1 -14 -13.5 -23.5t-29.5 -8.5q-20 0 -32.5 10t-12.5 26t12.5 27t30.5 11t32 -12.5t13 -29.5zM404 230q-30 -20 -63 -16
q-19 2 -24.5 13.5t3.5 28.5l1 2q1 2 2 3q23 22 23 49q0 22 -17 50t-16 52t16.5 42.5t36.5 23.5q27 5 48.5 -4.5t33.5 -31.5q20 -35 18 -81q-2 -42 -15 -73q-15 -35 -47 -58zM688 83q10 -8 11 -17q0 -7 -6 -21q-6 10 -15 11q-5 1 -17 -3l-4 -1q-63 -18 -117 19q-13 9 -37 29
l-11 9q-15 12 -14 23t17 19l10 5q25 12 38 15q22 6 40.5 -2.5t40.5 -9.5q17 -1 41 2q12 2 19 -1.5t6 -16.5q0 -4 5.5 -8t6.5 -7q-20 -5 -24 -19t10 -26zM422 432q-3 -4 -5.5 -5.5t-5.5 0t-3 7.5v2q2 15 -5 22.5t-21 6.5q-28 -3 -21 -33l1 -9q0 -9 -7 -10q-4 -1 -7 5l-2 4
q-2 7 -6 6q-7 -2 -7 -13q-2 -19 0 -31q2 -17 10 -29q19 -28 19 -49q0 -25 -27 -45l-1 -2q-4 -6 -5 -10t4 -7q16 -10 20 -4l3 4q8 11 12 12q6 2 15 -12q2 -4 11 4l3 3q27 25 39 62q8 28 11 74v5q-2 23 -4.5 35t-7 15t-13.5 -8zM257 525q-3 1 -9 1q-16 0 -18 -17q0 -7 4 -11.5
t10 -5.5q13 -1 17 17q1 3 0.5 8t-4.5 8zM513 493q9 -4 16 4.5t3 18.5t-12.5 12t-14.5 -4q-3 -3 -2 -12l1 -5q-1 -9 9 -14z" />
    <glyph glyph-name="bathtub" unicode="&#xe801;" 
d="M608 495q22 0 38 -16t16 -39t-16 -39t-38 -16t-38.5 16.5t-16.5 39t16.5 38.5t38.5 16zM365 511q0 27 19.5 46.5t46.5 19.5t46 -19.5t19 -46.5t-19 -46.5t-46 -19.5t-46.5 19.5t-19.5 46.5zM387 511q0 -18 13 -31t31 -13t30.5 13t12.5 31t-12.5 31t-30.5 13t-31 -13
t-13 -31zM435 678q0 35 25 59.5t59.5 24.5t59 -24.5t24.5 -59t-24.5 -59.5t-59 -25t-59.5 25t-25 59zM458 678q0 -25 18 -43t43.5 -18t43 18t17.5 43t-18 43t-43 18t-43 -18t-18 -43zM733 -20v0q-15 -1 -20 -4q-9 -5 -6 -19l1 -2q6 -18 11 -26q9 -12 24 -14q13 -2 20 6.5
t5 21.5q-3 18 -8 26q-9 12 -27 11zM63 640q0 39 19.5 73t53 53.5t73.5 19.5t73.5 -19.5t53 -53.5t19.5 -73t-20 -73t-53.5 -54t-72.5 -20t-72.5 20t-53.5 53.5t-20 73.5zM89 640q0 -33 16 -60.5t44 -44t60 -16.5t59.5 16t43.5 44t16 61t-16 60.5t-43 43.5t-59.5 16
t-60.5 -16t-44 -44t-16 -60zM830 296q-26 -10 -39 -14q-144 -51 -305 -63q-145 -11 -311 9l-7 1q-23 3 -30 -1q-12 -6 -4 -31q27 -84 77 -134q65 -65 158 -59q30 2 90 1h162q243 0 275 241q5 41 3 53q-2 15 -18 14q-12 -1 -51 -17zM932 425q-9 17 -26 15q-11 -1 -31 -12
q-166 -86 -364 -106q-169 -17 -379 13l-11 2q-23 5 -32 2q-15 -4 -18 -26t11 -31q8 -5 31 -9l11 -2q47 -9 106 -13q34 -3 97 -6l24 -1q161 1 289 27q142 29 262 92q22 11 30 20q11 15 0 35zM288 -24q-15 3 -23 -7q-5 -6 -10 -22l-1 -5q-3 -11 4.5 -19t19.5 -9q29 -1 38 42
q3 11 -5 16q-4 2 -16 3z" />
    <glyph glyph-name="bird-wings" unicode="&#xe802;" 
d="M306 788q-61 -87 -88 -200q-9 -33 -6 -67q4 -29 28 -58q21 -24 66 -68l12 -11q83 -84 197 -207q28 -30 88 -88l22 -21q4 -4 4 -6.5t-4 -6.5l-132 -139q-4 -4 -6 -4t-6 4l-132 127q-3 3 -2.5 5t2.5 4q52 48 77 72q3 2 5 2t4 -2l12 -11q15 -14 23 -21q3 -2 2.5 -4t-2.5 -5
l-25 -28q-3 -2 -3 -4t3 -5q11 -9 32 -28l3 -3q3 -2 5 -2.5t4 2.5q15 17 43 47q3 3 2.5 5t-3.5 5q-28 32 -59 62l-1 1q-78 80 -120 118q-45 41 -139 117l-11 10q-34 28 -49 43q-12 12 -20 24q-11 17 -7 35q28 145 141 267q4 5 14 14l7 7q7 6 19 18zM694 785q11 -6 19 -16
q104 -101 147 -229q9 -31 15 -61q2 -10 -3 -24q-8 -15 -22 -29q-8 -9 -26 -25l-57 -47l-81 -69q-63 -55 -107 -101q-4 -2 -5 -4q-4 -5 -7 -5t-8 5q-6 8 -20 22l-10 11q-3 3 -3 5t3 4q99 108 166 174q45 45 66 69q36 40 26 97q-19 117 -90 219zM607 361q0 28 -5 43
q-7 22 -26 34q60 29 99 85q33 46 57 118q17 -52 14 -90q-3 -46 -35 -82q-24 -28 -75 -80l-26 -26q0 -1 -1 -1zM424 438q-19 -12 -26 -34q-5 -15 -6 -44l-40 42q-37 38 -56 58q-60 63 -36 153l7 25l2 2q23 -71 56 -117q40 -56 99 -85zM601 492q10 30 -9 58l-4 4q-5 4 -4 6.5
t8 5.5l4 2q80 47 103 130l3 16q4 -7 5.5 -21.5t-0.5 -25.5q-4 -29 -18 -58q-11 -23 -30 -52q-28 -37 -58 -65zM400 491q-17 14 -39 41q-40 47 -58 96q-15 40 -8 80q0 3 1 4l2 4q3 -18 9 -35q27 -73 102 -116q5 -2 6 -4.5t-3 -6.5q-22 -23 -14 -59z" />
    <glyph glyph-name="bow" unicode="&#xe803;" 
d="M886 662q-30 16 -67 16q-84 0 -210 -81q-39 -25 -76 -53q-30 -23 -31 -26l-2 -1l-2 1q-6 6 -31 26q-37 28 -76 53q-126 81 -210 81q-37 0 -67 -16q-58 -36 -51 -111q5 -41 33 -117q18 -52 24 -76q17 46 55 74q33 24 80 34q38 9 84 9q32 0 65 -5l27 -4q-57 -61 -109 -89
q-42 -23 -79 -24q-29 0 -50 12q-16 10 -19 19q-9 -9 -18 -23.5t-15 -25.5q25 -39 69 -49q37 -8 83 4q39 11 73 33q45 30 75 62l2 -3l-9 -11q-22 -26 -48 -64q-18 -27 -33 -51q-17 -27 -39 -70q-18 -34 -27 -54q-12 -28 -17 -42l-15 -35l99 66l68 -99v51l1 14q0 14 2 40v6
l1 4q2 23 8 71q5 31 12 61q9 45 19 74l4 13q9 -5 22 -5h18q13 0 22 5l4 -13q10 -29 19 -74q8 -33 12 -62q6 -44 8 -70l1 -4v-6l1 -13q2 -18 2 -27v-65l68 99l99 -66l-32 77q-5 12 -16 33l-10 21q-11 22 -32 58l-7 12l-34 52q-20 29 -47 63q-3 3 -9 11l1 3q34 -34 76 -61
q34 -22 73 -33q46 -12 83 -4q43 10 68 49q-17 32 -33 49q-3 -10 -19 -19q-21 -13 -49 -12q-37 0 -80 23q-51 29 -108 89l27 4q33 5 65 5q46 0 83 -9q48 -10 80 -34q38 -28 55 -74q8 31 25 76l2 7q14 38 19 57q9 31 11 54q7 74 -51 110zM562 416q-4 18 -19 30.5t-34 12.5h-18
q-19 0 -34 -12.5t-19 -30.5l-1 11q0 22 16 38t38 16h18q23 0 38.5 -15.5t15.5 -38.5z" />
    <glyph glyph-name="castle" unicode="&#xe804;" 
d="M323 459v131q0 7 -5.5 12t-12.5 5h-17q-7 0 -12 -5t-5 -12v-35h-49v35q0 7 -4.5 12t-11.5 5v48l104 34q5 2 5.5 7.5t-4.5 8.5l-119 59q-4 2 -8.5 0t-4.5 -7v-150q-7 0 -11.5 -5t-4.5 -12v-34h-49v34q0 7 -5 12.5t-12 5.5h-17q-7 0 -12 -5.5t-5 -12.5v-131q0 -8 5 -13
l41 -41q6 -6 6 -13v-439q0 -7 5.5 -12.5t12.5 -5.5h137l1 457q0 6 5 13l42 41q5 7 5 13zM219 205q0 -6 -4 -10t-10 -4h-25q-6 0 -10 4t-4 10v64q0 11 7.5 18.5t18.5 7.5h5q9 -2 15.5 -9t6.5 -17v-64zM920 607h-17q-7 0 -12.5 -5t-5.5 -12v-35h-48v35q0 7 -5 12t-12 5v48
l104 34q5 2 5.5 7.5t-4.5 8.5l-119 59q-5 2 -9 -0.5t-4 -7.5v-149q-6 -1 -10.5 -5.5t-4.5 -11.5v-34h-49v34q0 8 -5 13t-13 5h-16q-7 0 -12.5 -5t-5.5 -13v-131q0 -6 5 -13l42 -41q5 -7 5 -13l1 -457h138q7 0 12 5.5t5 12.5v439q0 7 6 13l41 41q6 5 6 13v131q-1 7 -6 12
t-12 5zM833 205q0 -6 -4 -10t-9 -4h-25q-6 0 -10 4t-4 10v64q0 10 6.5 17t15.5 9h4q11 0 18.5 -7.5t7.5 -18.5v-64zM656 314h36v-379h-70q-7 0 -12.5 5.5t-5.5 12.5v86q0 28 -14 52t-38 38t-52 14t-52 -14t-38 -38t-14 -52v-86q0 -7 -5 -12.5t-13 -5.5h-73v379h39v35
q0 8 5.5 13t12.5 5h68q8 0 13 -5t5 -13v-34h41v194q0 4 2.5 6.5t6.5 1.5l1 1q5 0 8 -5l72 -45q4 -3 3.5 -8t-4.5 -7l-70 -34v-104h44v34q0 8 5.5 13t12.5 5h68q8 0 13 -5t5 -13v-35z" />
    <glyph glyph-name="circuit" unicode="&#xe805;" 
d="M161 474q7 5 20 15q21 16 32 23q68 45 132 50q88 9 162 -35q25 -15 67 -46.5t88 -31.5h265q-10 46 -32 91h-52q-66 -1 -99 0q-54 1 -100 32q-11 8 -33 25t-34 25q-45 31 -86 48q-47 19 -95 21q-82 3 -140 -20q-50 -20 -110 -64q-53 -73 -72 -158q50 -3 87 25zM522 694
q49 -23 113 -72l7 -5q28 -21 44 -29q30 -13 79 -13q25 -1 73 0h38q-59 97 -157 154q-101 58 -219 58q-72 0 -137.5 -22t-120.5 -62q54 21 119 23q86 3 161 -32zM500 -87q126 0 231 66h-461q50 -32 109 -49t121 -17zM100 367q19 0 35 4q36 8 81 41q40 32 63 45q55 32 122 23
q33 -5 76 -30q12 -8 34 -24q18 -15 28 -21q56 -40 121 -39q32 1 96 1h182q-2 31 -5 46q-1 1 -3 1h-130t-131 -1q-60 0 -110 35l-24 18q-20 15 -31 22q-60 39 -121 40q-70 3 -126 -30q-22 -12 -63 -44l-3 -2q-39 -30 -79 -37q-11 -1 -34 -1h-11v-3q-4 -29 -4 -44h37zM648 332
q-24 0 -41 4q-46 9 -93 43l-22 16q-28 21 -42 30q-48 30 -111 19q-17 -3 -35 -13q-11 -6 -32 -20l-18 -14q-33 -25 -51 -35q-45 -26 -90 -30q-11 -1 -33 0h-17q2 -30 4 -46q1 -1 5 -1q40 2 66 -4q43 -9 94 -44q38 -30 59 -43q45 -29 103 -23q30 4 66 27q12 7 34 25l25 18
q67 46 143 45q41 -1 123 -1h89q39 1 58 0h1q3 15 5 45v1h-3q-96 1 -287 1zM372 212q-41 0 -69.5 28.5t-28.5 68.5t29 68.5t69 28.5t68.5 -28.5t28.5 -68.5t-28 -68.5t-69 -28.5zM643 250q-6 0 -18 -2h-2q-39 -5 -81 -34q-10 -7 -30 -22t-31 -22q-107 -71 -215 -2
q-13 8 -36 26l-18 13q-64 49 -138 43v0q8 -32 14 -47h8q10 1 15 0q33 -4 64 -27q12 -8 35 -25l20 -15q73 -51 141 -47q59 -3 112 28q32 17 73 51q47 36 106 36q83 -1 249 -1h2q10 29 13 47h-283zM659 169q-45 0 -78 -27q-42 -32 -65 -47q-104 -64 -219 -31q-28 8 -57 24
q-23 13 -52 35l-6 5q-29 22 -46 31q-20 9 -34 9q42 -90 118 -154h560q78 66 118 154h-4q-157 0 -235 1zM662 45q-19 0 -32.5 13.5t-13.5 33t14 33t33.5 13.5t33 -13.5t13.5 -33t-14 -33t-34 -13.5zM775 85q-10 0 -18.5 8.5t-8 19t8.5 18t18.5 7.5t18 -8t7.5 -18.5
t-7.5 -18.5t-18.5 -8z" />
    <glyph glyph-name="crown-king" unicode="&#xe806;" 
d="M260 594l-67 86l53 69q7 8 16.5 8t16.5 -8l58 -75zM809 682l-52 67q-7 8 -16.5 8t-16.5 -8l-59 -76l75 -79zM938 723v-441q0 -50 -59 -92t-158 -66q-102 -25 -221 -25t-221 25q-99 24 -157.5 66t-58.5 92v441q0 13 7 21.5t16.5 8.5t16.5 -9l155 -199l227 236q8 6 16 6
t14 -6l130 -135l98 -101l154 199q8 9 17 9t16.5 -8.5t7.5 -21.5zM177 351l-17 42q-2 7 -8 7t-9 -7l-16 -42q-2 -5 0 -11l16 -42q3 -7 9 -7t8 7l17 42q2 6 0 11zM561 301l-53 99q-3 5 -8 5t-8 -5l-53 -99q-3 -7 0 -14l53 -98q3 -5 8 -5t8 5l53 98q3 8 0 14zM875 351l-17 42
q-2 7 -8 7t-8 -7l-17 -42q-2 -5 0 -11l17 -42q2 -7 8 -7t9 7l16 42q2 6 0 11zM599 54q-39 -5 -98.5 -5t-99.5 5q-123 11 -212.5 48.5t-117.5 88.5q-4 7 -8 19v-115q0 -50 58.5 -92t157.5 -66q102 -25 221 -25t221 25q99 24 158 66t59 92v115q-2 -7 -8 -19
q-29 -51 -118.5 -88.5t-212.5 -48.5z" />
    <glyph glyph-name="crown-queen" unicode="&#xe807;" 
d="M910 132q10 -11 8.5 -25.5t-12.5 -23.5q-56 -47 -165 -74t-240.5 -27t-240.5 27t-166 73q-11 10 -12.5 24.5t8 25.5t24 12.5t25.5 -8.5q49 -41 158 -64q97 -20 203 -20t203 20q109 23 158 64q11 10 25.5 8.5t23.5 -12.5zM937 497l-36 -305q-2 -10 -8 -15
q-53 -45 -159 -71.5t-234 -26.5t-234 26.5t-159 71.5q-6 5 -8 15l-36 305q-2 16 11 24q6 4 13 3t12 -5t20 -13q24 -14 50 -23q36 -12 70 -12q150 0 239 232q7 15 22 15q8 0 14 -4t8 -11q89 -232 239 -232q44 0 90 20q24 10 47 26l2 1q5 5 12 5.5t13.5 -3t9.5 -10t2 -13.5z
M273 264q0 17 -11 29.5t-26 12.5t-26 -12.5t-11 -29.5t11 -29.5t26 -12.5t26 12.5t11 29.5zM586 264l-71 107l-71 -107l71 -107zM825 264q0 17 -11 29.5t-26 12.5t-26 -12.5t-11 -29.5t11 -29.5t26 -12.5t26 12.5t11 29.5z" />
    <glyph glyph-name="dart" unicode="&#xe808;" 
d="M272 487q-42 -67 -42 -147q0 -76 38 -142q38 -63 102 -101t140 -38t142 38q63 38 101 101q38 66 38 142t-38 142q-38 63 -101 101q-66 38 -143 38t-146 -42l38 -38q50 28 109 28q62 0 114.5 -31t83.5 -83.5t31 -114.5t-31 -114.5t-83.5 -83.5t-114.5 -31t-114.5 31
t-83 83.5t-30.5 114.5q0 58 27 109zM376 382q-6 -19 -6 -42q0 -38 19 -70t51 -51t70 -19t70 19t51 51t19 70t-19 70t-51 51t-70 19q-22 0 -42 -6l45 -46q36 -1 60.5 -26.5t24.5 -62t-25.5 -62.5t-62 -26t-62 25t-26.5 61zM144 560q-61 -102 -61 -220q0 -116 58 -216
q57 -97 154 -153q99 -59 215 -59t216 59q96 56 153 153q58 100 58 216t-58 216q-57 96 -153 153q-100 58 -216 58q-119 0 -219 -61l37 -38q85 47 182 47q102 0 189 -51q86 -50 136 -135q51 -87 51 -189t-51 -189q-50 -86 -136 -136q-87 -51 -189 -51t-189 51
q-85 50 -135 136q-51 87 -51 189q0 97 47 182zM63 696l73 18l18 74l138 -138l-6 -49l244 -244q8 -7 8 -17.5t-7.5 -18.5t-18.5 -8t-19 8l-243 243l-50 -5z" />
    <glyph glyph-name="disability-race" unicode="&#xe809;" 
d="M538 44q-47 0 -87 22.5t-63 62t-23 86.5t23 86.5t62.5 62.5t85.5 23t85.5 -22.5t63 -61.5t23.5 -85q0 -48 -22 -88t-61.5 -63t-86.5 -23zM411 214q0 -33 17.5 -62t46 -46t62.5 -17t62.5 17t46 46t17.5 63t-17 63.5t-46.5 46t-63.5 16.5t-62.5 -17t-45.5 -46.5t-17 -63.5z
M211 487q36 -30 89 -43.5t162 -20.5q-35 -36 -85 -55q-37 -14 -102 -25q25 -11 53 -14q17 -2 50 -2h6q-5 -11 -14 -30l-9 -18q-3 -5 -9 -7q-26 -5 -42 -5q-22 -1 -42 5q20 4 33 9q17 7 29 20q-14 3 -39 6l-7 1q-34 8 -56 33q-16 20 -27 28q-17 13 -39 15q15 9 30 10
q12 0 27 -5q34 -12 72 -6q29 5 69 23q-14 1 -42 5q-57 11 -87 34t-68 27q-31 4 -72 -6q-14 -3 -28 -7q32 41 77.5 56.5t94.5 1.5q36 -10 57 -14q32 -5 58 -2q12 1 18 3q9 2 15 8q-39 20 -51.5 31t-23.5 37q23 -11 51 -13q17 0 52 3l15 1q111 8 189 -35h1q10 -4 12 -11l-9 2
q-69 12 -105 15q-59 5 -108 -4q8 -6 24.5 -8.5t24.5 -7.5q-35 -29 -77 -40q-37 -10 -82 -7q-33 2 -85 12zM688 326q-40 49 -87 64q-7 3 -8.5 7t2.5 10l48 86q12 19 32.5 26t41 -1t31 -26.5t6.5 -39.5q-3 -12 0.5 -15.5t14.5 -3.5q15 0 46.5 -1t47.5 -1q32 -2 31 -26.5
t-32 -22.5l-39 1q-53 1 -79 2q-13 1 -21 -3.5t-13 -16.5q-3 -6 -11 -20zM830 591q0 -27 -19.5 -46.5t-46 -19t-46 20.5t-18.5 46t20 45t45.5 19.5t46 -19t18.5 -46.5zM849 44q-38 -1 -64 24.5t-25.5 63t25.5 63t61.5 26.5t63.5 -24.5t28 -62.5t-25.5 -63.5t-63.5 -26.5z
M916 133q0 28 -20 48t-48.5 19.5t-48.5 -21t-19.5 -48.5t21 -47.5t48.5 -19.5t48 20t19 49zM694 311h58l80 -80l-10 -2q-12 -2 -22 -7q-14 -8 -21 -20l-39 37l-22 -1l-1 10q-2 12 -6 25q-6 19 -17 38z" />
    <glyph glyph-name="diving-goggle" unicode="&#xe80a;" 
d="M63 407v2q6 30 14 44q24 48 76 66q61 22 137 33q111 16 247 13q75 -2 133 -8q70 -8 131 -24q27 -7 40 -12q22 -8 37 -19q49 -34 58 -91q0 -2 2 -4v-120q-2 -4 -3 -12l-1 -5q-30 -108 -136 -133q-8 -2 -24 -2h-184q-12 0 -17 4t-6 16q-4 25 -10 41q-9 21 -23 36
q-19 19 -42 18.5t-41 -20.5q-22 -28 -29 -71l-2 -8q-3 -16 -19 -16h-59q-78 -1 -117 0q-83 0 -132 72q-23 32 -28 74l-2 6v120zM695 172h72t67 18q29 17 46.5 46t19.5 60q1 24 1 73v25q-1 44 -37 73q-9 8 -23 14q-9 4 -26 10q-105 32 -257 37q-137 5 -256 -12
q-43 -6 -70 -12q-37 -8 -68 -20q-28 -10 -45.5 -33.5t-18.5 -52.5q-1 -22 0 -66v-32q0 -28 11 -49q35 -76 108 -79q36 -1 108 0h54q4 0 5 1.5t2 4.5q8 41 31 71q20 25 46.5 33.5t53.5 1t47 -31.5q23 -29 33 -72q1 -5 3 -6.5t7 -1.5h86zM485 493q80 0 142 -5q75 -7 140 -22
q26 -6 52 -15q46 -17 46 -65v-22q1 -44 -1 -67q-2 -35 -29 -61.5t-61 -27.5q-30 -1 -89 0h-45q-14 0 -20 15q-19 49 -51 73q-27 22 -59.5 26.5t-63 -8.5t-52.5 -42q-17 -21 -28 -51q-5 -13 -18 -13h-43q-57 -1 -85 0q-47 1 -74 52q-10 20 -10 40v1q-2 64 0 97q3 39 39 52
q48 18 117 28q85 13 193 15zM497 456q-101 -2 -166 -10q-43 -5 -70 -11q-37 -7 -68 -18q-11 -4 -16 -10.5t-5 -18.5v-71q0 -16 2 -24q4 -23 19.5 -36t39.5 -13h95q8 0 12 7q13 29 31 50q27 33 64.5 47.5t78 10t74.5 -29.5q38 -28 59 -77q2 -5 5 -6.5t8 -1.5h35q46 1 69 0
q26 -1 45.5 19t18.5 45v77q0 13 -5 20.5t-17 11.5q-32 11 -80 20q-92 17 -229 19zM334 312q-8 0 -13 4.5t-6 12t3.5 13t11.5 6.5q26 4 38 5q8 1 13.5 -4t6.5 -12.5t-3.5 -13.5t-11.5 -7q-26 -2 -39 -4zM280 318q0 -13 -14 -18q-11 -4 -35 -10q-7 -2 -13 1t-8.5 10t0 13.5
t9.5 9.5q19 7 41 12q7 1 13.5 -4.5t6.5 -13.5z" />
    <glyph glyph-name="eye-open" unicode="&#xe80b;" 
d="M462 650v15q-1 20 0 31q0 18 11 29.5t28 11.5t28.5 -12t12.5 -29q0 -62 -1 -93q0 -7 2 -9.5t8.5 -3t18.5 -3.5l6 -2q9 -3 10 6l28 86q5 17 18.5 24.5t30 3t24.5 -18.5t3 -31q-9 -30 -29 -90q-2 -6 -1 -8.5t6 -4.5t14 -7l9 -5q9 -5 11.5 -4.5t7.5 9.5l47 74q8 12 21.5 16
t26.5 -1.5t20 -18.5q11 -21 -3 -41l-13 -22l-36 -57q-6 -8 2 -13q16 -12 24 -20q6 -6 11 1q38 44 58 65q13 14 29 16t29 -10t13.5 -28t-12.5 -30q-19 -23 -59 -67q-4 -4 -4 -8t4 -10q40 -45 60 -90q12 -23 1 -49q-23 -50 -79 -110q-80 -86 -177 -134.5t-186 -44.5
q-81 3 -157 43q-148 75 -243 220q-10 15 -17 29q-10 23 0 45q23 47 67 97q5 5 5 8.5t-5 7.5q-40 44 -59 67q-9 10 -9.5 23t7.5 24t20 15.5t23.5 1t23.5 -16.5q8 -10 25 -29t25 -29q4 -5 7 -5t9 5.5t22 17.5q4 3 4.5 5.5t-2.5 6.5l-47 75q-12 19 -4 38t30 24q11 3 22 -2
t19 -16l45 -73q3 -5 6 -5.5t8 2.5q18 10 28 15q4 2 4.5 4t-0.5 6l-27 86q-5 17 2 32t23 20t30 -2.5t20 -24.5l9 -28q13 -37 18 -56q1 -5 4 -6.5t8 -0.5q8 3 24 5h1q5 1 6.5 3t1.5 6q-1 11 0 32v17zM269 280q0 -62 30.5 -114.5t82 -83.5t111.5 -31q64 0 117.5 30t84.5 83
t31 117q0 60 -31 112t-83 83t-112 31q-63 0 -116 -30t-84 -82t-31 -115zM369 279q1 37 19 66.5t48 46t67 15.5q33 0 61.5 -18.5t45 -48.5t16 -64t-19 -64t-50 -46.5t-68.5 -14.5q-32 2 -59.5 19.5t-43.5 46t-16 62.5z" />
    <glyph glyph-name="flora-flower" unicode="&#xe80c;" 
d="M909 232v-5q-3 -2 -5 -8v-1q-40 -77 -85 -132q-52 -65 -116 -107q-183 -122 -374 -20q-55 30 -103 77q-41 41 -81 99q-20 30 -54 92v5q5 0 7 1q66 18 130 -3q57 -17 107 -54q44 -31 87 -81q27 -33 50 -72v9q0 266 1 399q0 7 -3 9t-10 2q-65 -2 -121 28q-80 41 -84 119
q-1 43 0 88v111l133 -124l112 124l107 -124l135 124l3 -61v-7q1 -27 0 -81v-40q0 -68 -54 -110q-57 -45 -149 -47q-8 0 -11.5 -3t-3.5 -11q1 -130 1 -390v-3q0 -6 1 -9l2 1l5 9q67 108 171 167q83 47 162 36q9 -1 25 -4z" />
    <glyph glyph-name="flora" unicode="&#xe80d;" 
d="M860 295q-1 -150 -101 -260q-91 -100 -216 -119q-84 -13 -168 23q-153 67 -213 228q-20 53 -22 121v321q1 108 0 163q0 10 2.5 12.5t11.5 1.5q153 -20 273 -104l1 -1q11 -8 14 -11t2 -5.5t-6 -8.5l-8 -8q-51 -62 -80 -113q-37 -65 -51 -131q-27 -127 44 -224
q49 -67 129 -79q55 -8 104 13.5t82.5 66.5t44.5 104q17 95 -27 197q-38 86 -113 173q-7 9 -7 12t10 10q113 83 258 106l14 2q9 1 13.5 2t6.5 -0.5t2 -6.5v-485zM510 622q46 -55 73 -98q34 -56 49 -113q29 -105 -26 -181q-29 -41 -73.5 -52.5t-87 8t-66 65.5t-21.5 89
q-1 43 12 85q10 32 32 73q32 59 87 123q6 7 10 7.5t11 -6.5z" />
    <glyph glyph-name="gift-box" unicode="&#xe80e;" 
d="M467 12q0 -44 -2 -58q-2 -21 -10.5 -29.5t-30.5 -10.5q-14 -2 -58 -2q-49 0 -68 6q-21 7 -28 28q-6 18 -6 67q0 45 2 59q2 21 10.5 30t29.5 11q14 2 58.5 2t59.5 -2q21 -2 30 -11t11 -30q2 -15 2 -60zM365 379q-48 0 -66 -6q-21 -7 -28 -29q-6 -18 -7 -67q0 -44 2 -58
q2 -21 10.5 -29.5t29.5 -10.5q14 -2 58.5 -2t59.5 2q21 2 30 11t11 30q2 15 2 59.5t-2 58.5q-2 21 -11 29.5t-30 10.5q-14 1 -59 1zM471 425q-9 1 -26 1q-55 3 -81 7q-42 6 -74 19q-25 10 -36 21q-15 14 -13 36q4 56 60 89q19 11 39 5q16 -5 34 -21q30 -27 54 -70
q15 -25 42 -84zM363 454q14 -6 34 -9q11 -2 36 -3l13 -1l-3 7q-11 25 -18 36q-10 18 -23 29q-18 16 -34 8q-25 -14 -28 -41q-1 -10 7 -17q5 -4 16 -9zM628 177h5q43 0 57 2q20 2 28.5 10t10.5 29q2 14 2 56q0 50 -6 70q-7 22 -29 29q-19 7 -68 6q-43 0 -57 -2
q-21 -2 -29.5 -10.5t-10.5 -30.5q-2 -14 -2 -58t2 -58q2 -22 10.5 -30.5t29.5 -10.5q14 -2 57 -2zM499 425q-6 11 -17 33q-40 79 -54 119q-24 65 -23 124q1 43 25.5 65.5t69.5 21.5q89 -2 90 -86q2 -61 -23 -129q-15 -42 -57 -125zM545 593q-1 39 -44 41q-45 0 -45 -42
q-1 -29 11 -62q8 -20 28 -60l6 -11l6 13q20 40 27 59q12 33 11 62zM707 451q-24 -10 -54 -15q-18 -3 -54 -6q-24 -2 -36 -4q-20 -2 -26 3t2 21q21 45 36 70q22 37 48 61q18 17 34 22q20 6 39 -4q28 -15 45 -39t18 -54q1 -20 -15 -35q-12 -9 -37 -20zM654 479q-1 26 -28 41
q-16 8 -32 -8q-12 -11 -22 -27q-6 -10 -16 -31q-3 -7 -0.5 -9.5t11.5 -1.5l16 2q33 3 48 10h1q11 5 15 9q7 6 7 15zM626 115q-42 0 -56 -2q-21 -2 -29 -10.5t-10 -28.5q-2 -14 -2 -57q0 -46 2 -61q2 -22 11.5 -31t31.5 -11q15 -2 62 -2q44 0 62 6q20 7 27 28q6 18 6 63.5
t-1 60.5q-2 23 -11 32t-32 11q-15 2 -61 2z" />
    <glyph glyph-name="halloween-pumpkin" unicode="&#xe80f;" 
d="M389 755q5 14 20.5 17.5t30.5 -7.5q19 -14 40 -40l5 -6q9 -8 12 -14q5 -8 2 -17t-12 -13q-6 -3 -18 -5l-9 -1q-16 0 -35.5 15t-30.5 35.5t-5 35.5zM933 263q-14 -106 -67 -183q-51 -75 -139 -125q-23 -13 -52 -19q-23 -5 -55 -7q-25 -1 -77 0h-39l-22 -1q-56 -2 -83 -1
q-46 2 -83 13q-107 31 -173.5 123.5t-77.5 224.5q-12 136 32 236q28 64 80 97q46 30 116 37q30 3 90 4q51 0 77 2q43 3 78 12q85 22 165 -3q76 -23 133 -83.5t83 -144.5q27 -87 14 -182zM594 502l114 -147l90 147h-204zM459 246h153l-12 28l-3 6l-56 123zM252 502l106 -152
l98 152h-204zM832 230q-13 -6 -38 -22q-22 -14 -34 -20q-19 -9 -37 -11q-8 0 -12 -13q-6 -28 -17 -29q-10 0 -29 18q-7 7 -33 7q-23 0 -47 -5.5t-28 -12.5q-9 -16 -25.5 -22t-33 -0.5t-24.5 20.5q-9 18 -25 15q-10 -1 -31.5 2.5t-32.5 1.5q-18 -3 -31 -19q-3 -3 -10 -4
t-13 3.5t-7 15.5v0q-1 10 -3 14q-3 7 -11 8q-22 2 -44 14q-14 7 -40 25q-19 13 -29 19q1 -67 41 -122.5t103 -79.5q20 -8 29 -6q14 3 23 24t22.5 20t18.5 -25q4 -18 15 -25q8 -4 25 -4h39.5t39.5 -1q20 0 30 6q12 7 18 28t17 20t21 -19l4 -7q6 -10 11 -14q7 -6 19 -4
q39 6 76.5 37.5t59.5 75.5q24 47 23 91z" />
    <glyph glyph-name="hand-power" unicode="&#xe810;" 
d="M760 -88h-418v215q0 12 -11 20q-88 66 -133 99q-15 11 -14 28q1 33 0 99v49q1 55 33.5 88t86.5 34h50q68 -1 101 0q10 1 13 -3.5t2 -14.5q-5 -39 -36.5 -67.5t-73.5 -29.5q-24 -2 -47 0q-8 0 -11.5 -2t-2 -8.5t-0.5 -19.5t-1 -18q1 -9 10 -11q30 -8 91 -19q41 -7 61 -11
l8 -1q22 -5 33 -8q19 -6 32 -14q64 -43 67 -117q1 -9 4 -12.5t11.5 -3.5t11 4t2.5 13q-1 63 -49 115q-25 27 -64 41q-24 8 -74 17l-5 1q-12 2 -43.5 -0.5t-44.5 -0.5q-21 4 -23 22q0 7 7 7q4 1 15 -1q8 -2 10 -2q68 2 108 52l6 7q13 18 21 26q13 12 28 17q7 3 12.5 11
t9.5 7.5t10 -7.5q27 -27 62.5 -27t61.5 27q7 7 10.5 6.5t9.5 -6.5q22 -22 50 -26t55 11l3 2q6 4 11 2v-306q0 -6 -2.5 -8.5t-8.5 -4.5q-21 -5 -33 -19t-12 -34q-2 -108 0 -218zM673 648q0 -48 -0.5 -73t-17 -42t-40.5 -17.5t-40.5 16.5t-16.5 42q-2 77 0 152q0 33 32 33
q26 2 51 0q30 0 32 -32v-79zM502 525q-3 -2 -2 4v1q-1 23 -2 30q-3 8 -12 10q-6 2 -29.5 2t-30.5 2q-8 2 -10 10q-2 7 -2 30v45q-1 60 0 91q0 21 8 29t29 8q23 2 47 0q31 -2 31 -30v-186q0 -16 -6 -28q-7 -14 -21 -18zM816 621v-16q1 -22 0 -33q-1 -24 -17 -40t-39 -16.5
t-40 14.5t-18 38q-2 35 0 103v1q0 14 7.5 21.5t21.5 7.5q28 1 55 0q28 0 30 -31v-49zM270 642v56q2 32 32 32h53q14 0 22 -7.5t8 -21.5q1 -19 1 -58v-58q0 -8 -3.5 -10.5t-10.5 -2.5q-60 0 -91 -1q-7 0 -9 3t-2 10q1 13 0 39v19z" />
    <glyph glyph-name="hand-thunder" unicode="&#xe811;" 
d="M429 724q7 8 20 25.5t20.5 26.5t18.5 11t23 -3q19 -8 21 -31q-1 -11 -6 -21q-4 -6 -12 -17l-5 -6q-16 -22 -22 -27q-9 -7 -19 -5q-7 1 -30 12l-2 1q-16 7 -17.5 14.5t10.5 19.5zM500 659q15 -6 24.5 -16.5t13.5 -29.5l3 4q45 57 64 85q10 13 7.5 27t-14 23t-26.5 7
t-25.5 -15t-30.5 -41l-20 -26q-6 -7 -5.5 -11t9.5 -7zM603 683q-24 -30 -69 -91l-9 -12q-6 -8 -5.5 -18t6.5 -19q10 -17 29 -17t28 13q52 66 77 100q8 12 5.5 26t-13.5 22t-25.5 7t-23.5 -11zM697 612q-11 9 -23 9t-22 -10q-35 -36 -51 -69q-9 -17 2.5 -33.5t32.5 -16.5
q14 0 21 10q30 35 50 67q7 11 4 23t-14 20zM573 326l56 70q17 21 29 46q16 34 15 60q-20 -14 -33 -17.5t-24.5 4.5t-25.5 29q-3 5 -5.5 5t-6.5 -2l-3 -1q-5 -2 -15 -7.5t-15 -6.5q-8 -3 -13 -2t-10 7q-3 3 -8 12q-7 12 -12 17q-17 17 -41 31q-17 10 -45 23l-2 1q-5 1 -7 3
t0 6.5t4 4t6 -2.5l3 -2l53 -25q15 -7 29 -3t21.5 18t3.5 28.5t-20 23.5q-48 26 -100 50q-17 8 -30.5 2.5t-21.5 -22t-21 -48.5l-9 -20q-14 -37 7 -74q24 -42 70 -102q7 -8 8 -15t-4 -16l-4 -7l-114 -247h63l88 1l-40 -72l-83 -164q76 75 227 223l123 121l-156 -6z" />
    <glyph glyph-name="king-monster" unicode="&#xe812;" 
d="M183 106q-23 -7 -34 4t-14 43q-17 -6 -21 -30q-1 -3 0 -10v-5q0 -2 0.5 -6.5t-2.5 -5.5t-9 4l-2 2q-13 13 -8 36q2 7 10 20l4 7q-11 5 -17.5 2t-25.5 -19q-4 17 9 30q11 11 27 18q11 4 31 9q9 1 13.5 5.5t6.5 13.5q25 79 115 98q27 6 55 6q6 0 7.5 1t-0.5 7
q-26 89 -70 178q-3 5 -12 5h-2q-34 -2 -52 18q-11 10 -12.5 24t6.5 29q7 13 19.5 19t26.5 3q28 -5 42 -23q2 -3 4.5 -3.5t6.5 1.5q84 30 173 45q63 10 112 11q60 1 112 -12q5 -1 8 0.5t7 5.5l1 1q17 18 38 16.5t34 -21.5q9 -15 5 -31t-21 -27q-6 -4 -7.5 -8t-0.5 -10
q17 -85 -16 -186q-6 -20 -11 -30q-2 -6 -1 -8t6 -3l2 -1q44 -9 81 -35q57 -40 60 -111q1 -11 11 -15q31 -14 47 -32q19 -20 10 -41q-4 1 -7 6l-1 3q-8 12 -15 16q-3 3 -7 3.5t-6 -1.5q-4 -2 0 -8l1 -3q14 -46 -28 -57l1 4q7 21 7 31q0 16 -13 28q-14 -32 -26 -39t-33 4l18 9
q19 14 18 34q0 17 -14.5 23t-27.5 -7q-2 -2 -5.5 -7t-5.5 -7q-11 13 -6.5 26.5t21.5 18.5q14 4 34 2q5 0 7 2t2 7q3 44 -38 76q-37 28 -104 42q-3 1 -4.5 0t-3.5 -4v0q-57 -112 -171 -219v0q-4 -3 -4.5 -5t2.5 -6q10 -15 11 -25t-6 -29l13 4q28 7 43 9q34 5 58 -5
q29 -12 41 -42q2 -5 1 -7.5t-7 -2.5q-92 2 -185 0q-6 0 -8 3t-1 9q3 17 13 30q15 20 14 42q-1 8 -4.5 13t-11.5 7q-46 13 -99 13q-18 0 -34 -13.5t-21.5 -33.5t5.5 -38q13 -21 9.5 -26.5t-27.5 -5.5h-53q-72 1 -107 0q-8 0 -9.5 2.5t1.5 9.5q11 25 37.5 37.5t57.5 7.5
q27 -4 44 -11q6 -2 7.5 -1t2.5 7q7 57 54 73q6 1 6 9q-6 90 -29 185q-2 7 -8 8q-69 2 -112 -18t-54 -57q-3 -11 -1 -14t12 -5q8 -2 24 -8q18 -9 20 -22.5t-13 -27.5l-5 13q-5 10 -13 14.5t-17 2t-14.5 -12t-4.5 -19.5q2 -16 19 -29zM435 319q6 1 19 1q62 5 134 25
q60 15 91 34q20 13 24 30t-9 36q-7 9 -17 18l-1 1q-5 5 -4 9q2 15 -4.5 26t-20 15.5t-25 -0.5t-19.5 -19q-1 -3 -3 -4t-7 -1q-36 0 -67 -7q-7 -2 -10.5 -0.5t-6.5 8.5q-12 31 -42.5 43t-60.5 -2t-42 -44.5t3 -58.5q7 -13 8 -23.5t-4 -24.5q-9 -24 1 -39t36 -20q14 -3 27 -3z
M461 731l9 -12q11 -14 17 -20q16 14 23 22q3 3 5 3t4 -4q16 -32 25 -47q2 -5 0.5 -6.5t-5.5 -1.5q-65 -1 -140 -22l9 68l8 -4q10 -7 14 -10q6 -5 10 -4t6.5 7.5t8.5 19.5zM496 462q2 -16 -7 -31q-8 -12 -22 -20t-26 -8q-25 0 -44 18.5t-21 43.5q-1 21 20.5 38.5t47.5 17.5
q28 0 41 -20q9 -15 11 -39zM393 462q0 -16 12.5 -28.5t28 -12.5t31.5 12.5t16 23.5q0 20 -13.5 33.5t-33.5 13.5q-18 0 -29 -11.5t-12 -30.5zM444 364q90 30 194 38l-5 -1q-7 -2 -10.5 -4.5t-4.5 -10.5q-1 -5 -5 -4t-7.5 6t-7 5.5t-9.5 -1.5t-9.5 -1.5t-4.5 -1.5t-2 -6v-3
q0 -4 -3.5 -6t-7.5 2l-1 1q-3 6 -5.5 8t-7.5 -1q-3 -1 -9.5 -1.5t-10 -2.5t-4.5 -8.5t-6 -7.5t-7.5 4.5t-5.5 6t-8.5 -1t-8.5 -1.5q-10 0 -10 -10q0 -4 -4 -7t-6 1q-3 7 -7.5 8t-12.5 0h-4zM639 504q9 0 15.5 -7t6.5 -16.5t-7.5 -17t-17 -7.5t-17.5 8t-7 17t9 16.5t18 6.5z
M637 463q7 0 12 4.5t5 11.5t-5.5 12.5t-12.5 5.5t-12 -5t-4.5 -12t5.5 -12.5t12 -4.5z" />
    <glyph glyph-name="love" unicode="&#xe813;" 
d="M454 378q5 24 14 64q13 65 22 94q33 103 108.5 151.5t176.5 33.5q56 -8 95 -37t56 -74t9 -101q-23 -159 -121 -296q-79 -112 -224 -230q-10 -8 -20 -7q-6 0 -19 5l-4 2q-263 89 -416 270q-74 89 -68 171.5t91 145.5q56 41 104 37t94 -54q22 -24 54 -78q11 -17 31 -62z
M491 269q-9 5 -26 20q-15 13 -23 17q-12 8 -24 4.5t-26 -20.5q-22 -28 -11 -57q7 -19 36 -48q18 -18 43 -33q18 -10 49 -24q13 -5 23 -4.5t20 9.5q38 36 57 62q27 36 34 77q10 55 -30 74q-24 11 -46.5 7.5t-39.5 -23.5q-10 -12 -25 -41z" />
    <glyph glyph-name="magician-hat" unicode="&#xe814;" 
d="M709 442q39 -118 60 -184q7 -24 7 -38t-9 -24t-31 -22q-32 -17 -71 -27q-32 -8 -75 -13q-155 -16 -278 20q-37 12 -62 29q-36 25 -23 63l90 267q4 14 10 21q86 104 164 166q42 33 83 0q232 -192 348 -289q10 -8 11 -30.5t-5 -44.5t-17.5 -29.5t-18 -4t-4.5 17.5
q5 27 -8 43q-11 13 -38 23q-31 12 -94 39zM226 313q-1 -19 -15 -55l-6 -18q-11 -32 -4.5 -49t34.5 -34q32 -20 73 -32q32 -9 78 -15q176 -22 316 20q23 7 42 16q29 13 41.5 25.5t13 30.5t-9.5 50l-19 65q54 -18 85 -37q41 -23 66 -58q18 -25 17 -52t-20 -53
q-39 -53 -114 -79q-302 -110 -606 -1q-60 21 -100 60q-35 34 -35.5 72.5t33.5 73.5q23 24 57.5 42.5t72.5 27.5z" />
    <glyph glyph-name="native-american" unicode="&#xe815;" 
d="M525 123q-1 11 -3 16q-3 7 -10 11.5t-8 -4.5q-1 -15 12 -28l1 -2q4 -4 6 -2.5t2 7.5v2zM937 204q-6 18 -2 48q1 14 -3 42v2q-1 13 -9 37q-4 16 -7 23q-18 39 -39 70q-30 45 -53 66l-21 21l-11 11q-16 15 -50 45q-1 0 -2 1t-0.5 2t3.5 1l33 9l-18 65q-1 3 -2.5 3.5
t-3.5 -1.5l-30 -20q-2 -2 -3 -1.5t-1 3.5v9q-1 13 -0.5 18t-1 6.5t-5.5 1.5l-64 -1q-5 0 -7 2q-5 5 -16 15l-13 11q-13 13 -20 18q-23 20 -50 30q-16 6 -50 10q-5 1 -13 -2l-6 -1q-7 -1 -21 -2l-10 -1q-7 -1 -21 -1q-6 0 -17 2l-9 1h-38l-5 -1q-12 -1 -18 -4
q-25 -12 -35 -26q-9 -12 -12 -32q-1 -6 1 -18l1 -6q0 -3 -2 -5l-8 -6q-8 -7 -13 -10q-14 -9 -39 -30l-26 -22q-23 -19 -34 -30l-6 -6q-12 -12 -17 -18q-9 -11 -14 -22l-1 -1q-2 -7 -3 -11t1 -9q5 -14 2 -31q-4 -15 -13 -30q-5 -10 -17 -28l-8 -12q-15 -23 -21 -37
q-16 -32 7 -52q12 -10 20 -11v0q9 -2 10 -3.5t-2 -9.5l-1 -3q-5 -24 1 -44q1 -6 -1 -8q-7 -10 -3 -21l6 -15l2 -5q4 -9 -1 -21q-8 -16 -8 -25q0 -16 11 -34q6 -11 20 -20q20 -8 42.5 -9t33.5 1l10 1q14 1 21 2h3q1 -1 1 -3q0 -15 4 -24l2 -9q4 -16 8 -22q9 -14 21 -48
q3 -10 11 -16t18 -4q12 2 35 11l20 7q15 6 46 20l27 13q31 16 46 25q6 4 11 5t11 -1q21 -7 55 -7q20 2 38 -1h4q12 -2 19 -6t11 -5h1q6 -3 9 1q6 6 8 10q14 22 25.5 51t16.5 77q2 31 1 46q0 2 2 3v-1l5 -10q11 -18 15 -28q24 -41 30 -69q0 -5 4 -2l5 4q13 9 18 16
q20 25 32 68q4 16 6 34q4 29 0 61l29 -34q20 -27 51 -36q19 -5 46 -5q5 1 5.5 2t-0.5 6zM723 610l12 9l11 8q5 3 6 -3l7 -29q0 -2 -2 -3l-27 -7q-3 -1 -3 2l-6 16q-1 4 2 7zM687 557q-10 0 -16 7t-6 17t7.5 17.5t15.5 6.5q7 1 14.5 -6.5t8 -17.5t-6.5 -17t-17 -7zM755 150
q-3 4 -8 11l-12 18q-2 4 0 7l10 17q1 3 3 1l17 -17q2 -2 1 -4zM718 219q-1 4 -4 10l-5 11q-1 2 0 4q12 14 20 24l9 -35q0 -3 2 -9q4 -11 -3 -23q-2 -2 -5 -9l-1 -3q-4 8 -10 23zM697 309l22 22l5 -27q2 -16 4 -24q0 -6 -2 -8q-12 -14 -18 -22q-4 14 -5 21l-8 32q0 4 2 6z
M694 313q-1 5 -2 15l-3 18q-1 9 -1.5 14t1.5 7q14 14 22 21l5 -33q0 -7 1 -10q2 -6 -3 -11zM765 195q-2 3 -7 7q-10 9 -13 17q-5 14 -7 31l-1 4q-2 10 -1 15l35 -21q2 -2 2 -4l-1 -10q-1 -25 -4 -38l-1 -2zM772 254q-1 -1 -3 0l-31 17q-5 3 -6 8l-7 52q8 -5 23 -14l18 -10
q3 -2 3 -9v-4q1 -8 2 -23l1 -12q2 -3 0 -5zM765 314l-1 1h-2l-36 23q-3 1 -3 6q-3 14 -7 42q5 -1 14 -7l6 -4q3 -1 8.5 -4.5t7.5 -4.5q5 -3 5 -8l8 -42q1 -1 0 -2zM754 371q-13 7 -37 21q-3 1 -3.5 8t-2.5 22t-4 22q-1 13 -6 40l-3 21q0 1 -0.5 4.5t2.5 4.5t6 -4v-1
q7 -14 17 -44q2 -6 7 -20q8 -19 10.5 -29t8.5 -30zM702 452l6 -42q0 -6 1 -9q1 -6 -4 -11l-19 -21q-1 6 -1 16l-1 10q-1 20 -1 59v45q0 12 5 12t7 -11zM701 656q4 0 4 -5v-31q0 -4 -4 -4q-16 -3 -25 13q-3 5 -10.5 13.5t-10.5 13.5q24 -1 46 0zM470 44q-8 -3 -22 -12
l-16 -10q-32 -17 -80 -35l-7 -2q-18 -7 -28 -9q-6 -3 -13.5 -1t-11.5 10q-4 12 -16.5 36t-14.5 53v2q-1 7 0 8.5t9 3.5q28 6 51 19q16 9 24 17q11 10 16 24v1q2 4 1 7q-4 -2 -7 -8q-2 -3 -4 -5q-14 -17 -40.5 -28t-48.5 -16q-30 -6 -45 -6q-4 0 -13.5 -1t-14.5 -1
q-21 0 -45 8q-15 6 -20 21t0 29q10 23 -2 45q-4 7 -4 13.5t5 14.5q2 3 6 2q34 -3 62 6q6 2 11.5 -0.5t6.5 -10.5v-2l1 -3q2 -5 6 -4t4 10v3q-2 12 -8 16q-8 6 -8 15q1 13 -13 13h-4q-6 1 -9.5 0.5t-5.5 -1.5t-2 -4q0 -6 7 -6q2 0 8 -2q3 0 3.5 -2t-1.5 -3l-1 -1
q-4 -3 -12 -4l-6 -2q-10 -4 -32 -3h-9q-4 0 -6 3t-2 7q-1 15 5 41q2 8 6.5 11t11.5 3l34 4q21 0 34 -8q5 -2 9 -11l7 -11q2 -4 4.5 -3.5t2.5 5.5q-2 12 -8 19.5t-20 17.5q-4 3 -4 7q1 18 -13 30q-13 10 -28 9q-11 0 -13 -13.5t9 -16.5l4 -1q5 -3 8 -1l2 1q3 1 1.5 4t-4.5 3
h-2q-4 -1 -6 1q-5 5 -4.5 8.5t6.5 5.5q9 2 14 -2q9 -4 14 -13t1 -15t-13 -7q-13 -1 -38 -4l-23 -3h-4q-13 0 -20 3q-8 6 -9.5 18t9.5 31q8 15 26 45q14 22 20 34.5t9 21.5q2 12 -1 24q-5 15 1 28q4 10 16 21l31 29q12 11 37 31l13 11l49 38q4 3 8 -1q6 -5 21 -15l6 -4
q14 -12 20 -24l7 -15q9 -19 11 -30q5 -27 2 -50q-1 -4 0 -13v-6q-1 -11 -4 -31l-2 -13l-4 -33q-2 -24 -2 -36q0 -35 11 -73q7 -25 29 -71q5 -8 13 -8q16 0 25 -14t5 -29l-1 -7q-3 -16 -6 -24q-1 -1 0 -3v-2q14 -30 40 -90l1 -1q1 -3 1 -4.5t-4 -3.5zM547 94q-3 -1 -7 0h-4
q-5 0 -7 -6q-4 -10 -11.5 -15t-15.5 -4q-20 5 -24 24q-10 37 -10 67q-2 27 -12 44q-6 10 -20 29l-7 11q-25 34 -38 72q-4 11 -4 25q-2 20 0 40q2 37 5 55q8 48 10 72l1 8q2 12 2 17q0 33 -12 57q-8 17 -22 51q-5 13 -5 33q0 5 4.5 11t10.5 7q11 4 22 1q9 -2 20 -10l4 -3
q21 -11 32 -15q25 -7 47 9q13 11 25 11q16 2 24 -10.5t15 -38.5q6 -14 9.5 -20.5t13.5 -8.5h3q17 0 25 5q4 2 5.5 -1.5t-2.5 -6.5q-18 -11 -40 -2q-6 2 -10 7q-3 3 -7 11l-2 4l-5 14q-7 22 -13.5 30t-12.5 9t-14 -4l-6 -4q-15 -10 -23 -14q-13 -5 -32 0q-13 4 -35 17l-13 8
q-13 9 -24 4q-13 -6 -11 -21t14 -43l6 -14q9 -18 12 -28q2 -6 4 -20q0 -3 1 -3.5t3 -0.5q10 1 28.5 4t27.5 4q34 4 51 5l15 1q19 2 29 2l29 -1q5 0 5.5 -2.5t-2.5 -3.5l-2 -1q-3 -1 -10 -1h-51l-35 -4q-9 0 -27 -2q-37 -5 -58 -10q-3 -1 -3 -4q1 -12 -1 -32q-4 -34 -8 -52
l-5 -36q-2 -15 -4 -47q-1 -16 3 -48q2 -14 9 -28q4 -9 15 -25l5 -9l10 -15q13 -19 20 -30q19 -31 20 -60l1 -13q1 -17 2 -26q5 -21 13 -35q2 -4 7 -5.5t11 -0.5t10 11t-8 18q-14 10 -17 31q-1 9 4 20q3 5 9 3q10 -4 17 -14t7 -20v-20q0 -5 3 -7q8 -2 12 3q7 10 8 18t-2 16
q-2 4 -7 12q-13 26 -34.5 48t-31.5 34q-16 19 -26 37q-3 5 -8 18l-4 9q-9 28 -8 56l3 66q4 43 12 71q5 11 15 14q8 1 16 -9l5 -8l9 -12q0 -3 2 -2t2 2l3 25q1 6 4 16l1 4q2 6 4 9t7 4q11 0 16 -8l15 -19q3 2 5 10v3q2 12 4 17.5t6 4t3 -7.5l-3 -11q-3 -11 -5 -16
q-7 -18 -18 -4l-5 6q-7 7 -10 12t-6.5 4t-3.5 -5q-4 -13 -4 -31q-1 -8 -7 -20q-4 -7 -13 -2q-6 3 -12 14q-4 4 -8 10q-3 4 -6.5 3.5t-4.5 -4.5q-6 -15 -9 -32q-2 -15 -4 -46l-1 -8q-3 -26 -4 -39q0 -24 3 -36l5 -28q2 -11 13 -28l4 -6q9 -13 29 -37l12 -14q26 -28 37 -44
q17 -22 19 -43q1 -8 -4.5 -19t-13.5 -14zM565 289q-8 -8 -25 -24t-24.5 -24t-12.5 1q-22 41 -35 73q0 4 1 6q4 11 15 31l12 26q12 27 46 77l5 7q21 30 34 44q5 5 14 16q11 14 17 19l8 8q20 20 31 29l4 3q3 -7 2 -11.5t-6 -10.5q-7 -9 -15 -29l-12 -31q-5 -13 -12 -40
l-12 -42q-10 -35 -14 -53l-4 -23q-4 -23 -7.5 -35t-9.5 -17zM682 162q-1 -13 -6 -40l-3 -16q-6 -28 -28 -73q-4 -9 -11 -9t-11 9q-20 40 -27 61q-4 12 -7 36l-1 9q-6 39 -6 83q-1 11 1 38l1 15q6 72 26 147q3 10 8 30.5t8 30.5q12 36 30 68l4 7q1 3 3 2q5 -3 4 -8
q-5 -18 -5 -55v-8q1 -8 1 -25q0 -21 2 -62l2 -57q2 -38 4 -57q1 -7 2 -21.5t2 -21.5l2 -16q3 -21 4 -32q2 -22 1 -35zM798 228q-1 -30 -11 -60q-8 -28 -15 -40q-14 -18 -22 -26q-2 -2 -3 -1.5t-2 2.5q-3 17 -19 46l-8 15q-14 30 -26 49q-4 5 -4 17q0 7 -2 20.5t-3 20.5
q-1 15 -5 40q-4 35 -6 107q-1 24 0 73v37q0 6 2 18q0 3 1 3.5t4 0.5t3 -4v-2q-5 -47 -3 -119q2 -44 4 -66q2 -37 18 -105q10 -46 35 -86q9 -16 21 -30q4 8 9 25l5 16q5 15 7 35q1 12 1 36q-2 28 -4 42l-1 11q-3 21 -6 32l-2 11q1 0 2 -2l1 -1q8 -18 26 -54q2 -4 2 -13
q2 -32 1 -48zM921 205q-40 2 -66 25l-26 24q-13 13 -31 43q-20 36 -30 56t-15 44l-2 7l-3 9q-14 43 -30 80q-2 5 -6 16q-5 15 -8 22q-6 10 -8 16q0 4 2 4.5t7 2.5l4 3l34 -93q11 -30 17 -44l7 -15q19 -46 31 -68l14 -27q21 -44 53 -69q10 -7 28 -11l4 -1q4 0 6.5 -1t3 0
l1.5 3v1q0 32 -4 57q-7 43 -32 90q-4 8 -13 21l-9 15q-5 9 -18 25l-14 17q-11 15 -18 22q-10 10 -29 30l-19 19q-5 5 -15.5 16t-16.5 16.5t-3 13.5l1 5q3 -2 7 -6q8 -9 27 -25q15 -14 22 -21q31 -31 47 -46q37 -35 64 -83q23 -41 31 -67q10 -36 10 -55v-64q0 -7 -5 -7z
M797 369q4 8 8 24l1 2q0 1 1.5 1.5t1.5 -2.5l36 -62l2 -5q5 -9 0 -21q-3 -6 -7 -20l-2 -7q-21 30 -40 69q-6 12 -1 21zM792 366h-2l-5 10q-5 10 -7.5 16t-7.5 18.5t-8 18.5q-3 9 -1 26v4l3 11q7 -13 21 -37l15 -25q5 -7 2 -14l-4 -10q-5 -12 -6 -18zM842 277l10 35l2 2
l18 -33q1 -3 3.5 -1.5t0.5 4.5l-1 1q-8 18 -16 31l-1 3l31 -6q6 -1 8 -9q5 -25 5 -46l1 -20q0 -6 -4 -3.5t-14 4.5q-14 3 -25 13q-8 7 -18 22q-1 1 0 2v1zM882 319l-22 4q-5 1 -9 8l-36 61l-3 6l50 -14q1 0 4 -3q16 -28 22 -52v-1q2 -7 1.5 -8.5t-7.5 -0.5zM838 397
q-3 1 -10 3l-15 4q-5 2 -9 8l-2 3q-11 19 -33 55l-2 4l6 -1q21 -3 29 -7q4 -2 10 -10l5 -6q8 -10 22 -30l12 -18l8 -11q-12 3 -21 6zM798 472q-8 3 -22 6l-12 3q-3 1 -5 5v1q-2 6 -10 17l-7 11q-2 4 -3 3q-3 -3 -1 -5l4 -7l6 -9l11 -18q3 -3 1.5 -7t-2.5 -12l-2 -11
q-10 20 -19 46q-6 15 -15 46l-2 8q17 -14 49 -47q19 -20 29 -30zM687 597q-5 -1 -9.5 -6t-4.5 -10t5 -11t10 -5.5t10 6t5 10.5t-5.5 10.5t-10.5 5.5zM325 338q-13 -12 -18 -30q-8 -21 2 -38t29 -22q-16 22 -14 49q2 30 22 48q-13 1 -21 -7zM633 545l7 14l-2 1
q-8 -11 -25 -31l-18 -21q-16 -18 -31 -40l-33 -49q-21 -31 -32 -56l-10 -20l-7 -16q-6 -11 -1 -21q8 -18 13 -26l4 -9q5 -12 8.5 -17.5t8 -1.5t12.5 12q12 11 34 33q8 6 8 15l3 17q2 13 8 38l4 17q11 51 20 78l6 18q14 44 23 65zM496 349q10 14 15 28t24 23l16 6
q-1 -7 -7 -20l-1 -3l-8 -25q-1 -4 -6 -7l-15 -7q-15 -6 -22 -10q0 7 4 15zM549 291q-6 -8 -23 -23l-6 -5q-5 -6 -7.5 -5.5t-6.5 7.5l-8 16l-9 21q-2 4 -3.5 11.5t0 9.5t6.5 4q8 4 18 8l20 10l-9 -33l-9 -28q-2 -5 1.5 -7t3.5 5l18 53l17 -27q3 -6 3 -8t-5 -8zM563 305
q-10 12 -14 18q-6 10 -8 20q-2 5 0 8q7 21 16 45l15 -27q2 1 3 3.5t2 3.5q-4 -15 -9 -45zM577 378q-7 15 -15 27q-1 1 -1 4q3 7 9 22q7 21 13 31q6 8 7 15q2 2 0.5 3.5t-2.5 -0.5l-1 -1q-4 -5 -10 -15l-3 -7q-9 -16 -15 -31q-1 -7 -9 -10q-16 -8 -23 -12q45 74 95 128
q-24 -63 -45 -154zM209 428q5 0 11 2q20 3 38 9q2 0 4.5 1.5t2.5 3.5q0 6 -5 9l-13 7q-21 13 -31 20q-5 3 -6 6.5t3 11.5q2 5 5 5.5t8 -1.5l12 -6q16 -9 24 -12q20 -8 37 4q6 4 5 8.5t-9 4.5q-30 -1 -58 22q-10 7 -16 9q-9 4 -17 3h-4q-18 0 -27 -10q-5 -5 -2 -10l2 -3
q2 -4 3.5 -6t1.5 -3.5t-2 -4.5l-3 -4q-3 -4 -5 -5q-4 -4 2 -8t13 -7h1q3 -2 2 -5q-4 -12 -1 -27q1 -3 -3 -3.5t-13 -2.5h-3q-6 0 -6 -4t6 -4q8 -2 14 0q4 0 4 -5v-13q0 -3 2 -4.5t4 0.5l2 1q6 5 10 16q3 5 7 5zM209 464l15 -6l25 -11q-11 -5 -17 -7q-9 -3 -17 -2l-3 -1
q-4 -1 -5.5 1.5t-0.5 10.5t1 11.5t2 3.5zM199 489q-2 2 -7.5 4t-8.5 4t0 5l20 6q6 0 4.5 -4.5t-5.5 -12.5q0 -3 -3 -2zM424 201q-4 7 -11.5 9t-15.5 -3q-14 -11 -17 -31q-5 -16 -1 -29q4 -10 8 -14q7 -5 15 -3.5t14 8.5q14 21 13 41q2 9 -5 22zM405 147q-5 -5 -11 -1.5
t-6 10.5q-1 2 0 5v1q-1 18 13 31q5 5 11 2.5t7 -10.5q3 -24 -14 -38zM308 391q-1 6 -4.5 10.5t-8.5 5.5q-11 0 -20 -7q-16 -12 -46 -16q-4 0 -4 5.5t6 5.5q3 0 8 2l6 2q13 4 18 13q2 4 1.5 6t-5 3.5t-9.5 -0.5q-8 -2 -25 -10l-8 -4q-8 -5 -13 -15q-3 -7 2.5 -12.5t8 -8.5
t-0.5 -6l-1 -2q-4 -4 -3 -8q0 -8 5.5 -14t13.5 -6q17 0 25 1q13 1 25 10q6 3 4 9.5t-8 7t-17 -4.5l-4 -2q-14 -4 -22 -1h-1q-4 2 -4 4.5t3 3.5l2 1q23 10 43 7q3 1 10 1q11 -1 16.5 3t6.5 7.5t0 8.5zM279 558q3 -2 8 -7l8 -7q4 -4 4.5 3t-6.5 14q-12 10 -22 22l-1 1
q-3 1 0 3l2 2q3 3 6 1q7 -6 12.5 -12.5t17.5 -16.5q19 -17 26 -28q1 -2 3 -2.5t3 0.5q4 3 1 8l-16 19q-11 15 -36 38q-6 4 0 7q3 3 6 -1q9 -6 24 -20l4 -5q3 -3 6 -4.5t5 2.5v1q0 3 -2 5q-7 10 -25 26l-6 5q-8 6 -14 3q-7 -5 -20 -16l-10 -8q-3 -2 -3 -5t3 -5q7 -8 22 -23z
M206 181q-2 2 -5 2l-3 1q-19 8 -26 14q-6 3 -11 1l-1 -1q-6 -4 -9.5 -4t-3.5 -5l-2 -44q2 -6 4 -8q4 -3 13 -3q4 1 6 7l1 1q3 -9 9 -15l1 -1q3 -2 5.5 -3t5.5 1q11 5 12 14q0 5 -5 15l-3 7q4 -1 11 2l1 1q5 4 5 9t-5 9zM664 255q-2 15 -4 41q-2 22 -4 65v3q0 76 -1 114
l-1 18q-1 19 0 28v1q-1 1 -1 2l-7 -16q-12 -31 -17 -47l-3 -7q-5 -12 -6 -18q-10 -40 -13 -60l-7 -34l-5 -39l-2 -21q-2 -21 -2 -31q-2 -55 5 -99q2 -20 4 -31q3 -18 9 -36q10 -26 22 -44l8 16l16 39q9 21 12 44q1 6 2 17l1 9q3 21 0.5 34t-5.5 38zM657 291q0 -12 4 -35
l1 -9l1 -10q0 -9 1 -14l-8 7q-9 6 -13 9q-10 6 -16 15l-1 1q-1 3 -1 4q0 10 1 32t0 34q17 -12 29 -23q2 -2 2 -11zM644 461q2 1 5 -1.5t3 -5.5v-20q-1 -25 1 -76l1 -17q0 -16 1 -24v-7q-5 2 -13 8l-7 6q-11 6 -7 22q1 5 2 16l1 8q1 16 5 48l2 9q3 18 3 28q0 5 3 6zM604 352
q3 20 14 60l8 34l4 11q1 2 3.5 3t4.5 0t1 -4v-1q-3 -14 -6 -42l-3 -21q-4 -31 -5 -49q0 -6 -3 -9q-6 -7 -20 -17l-2 1zM597 294q0 12 10 21l16 14l1 -1q-1 -8 -1 -25q0 -20 -2 -31v-12q2 -8 -4 -11q-3 -2 -8 -6q-6 -6 -11 -8h-1q-1 -1 -1.5 -0.5t-1.5 2.5q0 13 2 38z
M599 160q0 3 -1 7.5t-1 6.5l-1 17q-1 17 0 25v0q-3 8 0 12t10 8l16 11l2 -17q0 -27 1 -41v-6q2 -8 1 -10t-8 -7l-14 -8q-5 -3 -5 2zM663 137q-1 -9 -3.5 -17.5t-9 -10t-12.5 4.5q-2 2 -5 7l-3 5q-1 -8 -4.5 -11.5t-10 -3.5t-8.5 6q-5 9 -7 30q0 3 3 4l22 13q3 1 5 0l30 -19
q5 -3 3 -8zM666 156v-2q-1 -5 -2 -5.5t-4 0.5l-2 1q-7 3 -20 13l-5 4q-5 3 -5 8l-2 71q21 -19 32 -26q5 -3 6.5 -6.5t2.5 -9.5q1 -16 -1 -48z" />
    <glyph glyph-name="owl-look" unicode="&#xe816;" 
d="M928 490l-30 15l-19 10q-87 41 -163 60q-88 21 -172 17q-92 -5 -159 -48q-38 -24 -58 -61q-3 -6 -2 -8t8 -4q50 -13 126 -17q55 -3 118 2q29 3 87 14l5 1q5 1 5.5 3.5t-1.5 7.5q-15 29 -46 54q-4 2 -7 2h-14q-40 1 -62 -4q27 -9 41 -15q21 -9 37 -19q-36 -15 -85 -20
q-46 -4 -89.5 2t-68.5 19q67 39 159 47q149 14 302 -52q10 -4 13 -9.5t2 -15.5q-8 -73 -44.5 -137t-95 -108.5t-129.5 -62.5l-4 -1q-12 -4 -19 -1q43 91 86 142q57 67 136 97q-7 4 -15 5q-5 0 -15 -0.5t-15 -0.5q9 5 27 12q27 10 40 20q-15 2 -42 0l-21 -2q10 5 28.5 14
t26.5 13q15 9 25 18l-92 -25q-9 -2 -11.5 -6t-1 -12t-4.5 -22l-1 -2q-11 -28 -37 -48t-52 -19q-14 1 -23.5 8t-13.5 19t8 15q1 0 4.5 2t7 2t6.5 -5q8 -15 28.5 -11.5t38 22t19.5 38.5q0 5 -1.5 6.5t-6.5 0.5q-15 -6 -46 -16q-49 -17 -73 -27q-13 -6 -16 -19
q-14 -59 -21 -130q-7 -55 -10 -131q0 -7 3 -9.5t9 -1.5q36 3 64 10q85 20 155.5 70.5t117.5 124t62 158.5q1 7 -1 11t-8 8zM470 188q-6 65 -10 97q-7 54 -18 96q-1 11 -12 17q-22 10 -69 26q-36 11 -53 18q-5 1 -6.5 -0.5t-0.5 -6.5q1 -21 19 -39.5t39 -21.5q18 -2 28 12
q1 3 2.5 4.5t5.5 0.5q25 -5 13 -27q-8 -16 -29.5 -18.5t-45.5 12t-39 37t-14 44.5q1 7 -1 9.5t-7 3.5t-13 4l-9 3l-74 20q14 -13 46 -29q20 -10 29 -16q-26 4 -55 1q11 -9 38 -20q17 -6 26 -11q-6 0 -15.5 0.5t-14.5 0.5q-8 -1 -15 -5q79 -30 136 -98q43 -52 86 -144l-11 2
q-93 19 -164 83q-102 93 -117 230v3q-1 7 0 11t8 6q51 20 87 32q47 15 89 20q5 1 15 1q20 1 27 5q44 24 91 39q-44 5 -80 1q-156 -17 -310 -101q-7 -4 -9 -8t0 -12q37 -190 200 -295q89 -58 197 -67q8 -1 11 2t2 11z" />
    <glyph glyph-name="phoenix" unicode="&#xe817;" 
d="M182 152q-48 6 -77 38q-24 27 -39 79q63 -53 128 -67q67 -14 139 17q-76 -15 -140 -1q-69 14 -130 64h258l-30 8q-42 10 -62 19q-91 41 -64 135q17 57 58 115q27 37 84 99q-77 -196 79 -339q-50 62 -71 112q-27 65 -19 130t47 123q32 47 94 101l-3 -437l-1 -7
q-1 -7 0 -11t6 -6q11 -5 28 8l4 4q12 11 17 18q7 11 6 26q-1 18 11.5 30t30 11.5t29 -12.5t11.5 -29t-12 -29.5t-30 -11.5q-12 1 -21 -3.5t-18 -13.5v0q-11 -12 -14 -18q-6 -11 -2 -20q2 -5 10 -6q4 -1 14 0l9 1l410 3q6 0 16 -1q-52 -61 -100 -93q-58 -39 -123.5 -47
t-129.5 19q-50 22 -111 71q66 -77 155 -98q44 -10 93 -4q40 5 91 23q-58 -53 -93 -79q-54 -39 -107 -58q-58 -21 -97.5 -1t-58.5 79q-8 26 -18 73v-251q-41 25 -58 95.5t-6 167.5q-32 -51 -21 -117t65 -145q-41 3 -70.5 31.5t-43.5 79.5q-25 -14 -41 -18q-23 -6 -44 2
q-16 6 -21 10t-2.5 10t14.5 17l146 147l5 4q5 4 7 7q3 4 3 10q-7 1 -12 -2q-3 -3 -7 -8l-3 -4q-102 -100 -151 -151q-11 -12 -17.5 -10t-12.5 17q-10 21 -7 40t20 54zM540 433q44 25 86 39q-3 -15 -10 -31q-4 -10 -13 -29q-9 -16 -13 -25l-1 2q-10 20 -18 27q-12 13 -31 17z
" />
    <glyph glyph-name="robot-face" unicode="&#xe818;" 
d="M727 150l4 8q9 16 17 36h-87q-25 -43 -68 -69t-93 -26t-93 26t-68 69h-87q8 -20 17 -36l4 -8l-44 -60q-1 -1 -1 -3.5t1 -4.5l65 -68q1 -1 3.5 -1t3.5 1l57 47l8 -5q28 -17 65 -28l9 -2l8 -76q3 -5 6 -5h91q2 0 4 1.5t2 3.5l9 76l9 2q37 12 64 28l8 5l57 -47q3 -3 8 0
l65 68q3 5 0 8zM359 396q-17 0 -28.5 -12.5t-11.5 -30.5t11.5 -30t28.5 -12t29 12.5t12 30t-12 30t-29 12.5zM234 599l-104 94q8 11 7 26t-11 25.5t-25.5 10.5t-26.5 -11.5t-11 -27.5t10.5 -26.5t24 -11.5t24.5 7l90 -109zM641 396q-17 0 -29 -12.5t-12 -30.5t12 -30
t28.5 -12t28.5 12.5t12 30t-11.5 30t-28.5 12.5zM834 366l-63 8q-10 40 -28 71l40 52q4 6 3.5 14t-5.5 13l-65 68q-5 5 -12.5 5.5t-13.5 -3.5l-50 -41q-34 19 -67 29l-8 65q-1 8 -6.5 13.5t-12.5 5.5h-92q-7 0 -12.5 -5.5t-6.5 -13.5l-8 -65q-33 -10 -67 -29l-50 40
q-6 5 -13.5 4.5t-12.5 -5.5l-65 -68q-5 -5 -5.5 -13t3.5 -14l39 -53q-16 -29 -28 -70l-62 -8q-7 -1 -12.5 -7t-5.5 -14v-95q0 -8 5.5 -14t12.5 -7l63 -8h542l63 8q8 2 13 8t5 13v96q0 8 -5.5 13.5t-12.5 6.5zM441 342q0 -3 -4 -5l-15 -1q-1 -5 -5 -14l-1 -3l9 -12
q1 -1 0.5 -3t-1.5 -3l-15 -16q-2 -2 -6 0l-11 9q-8 -5 -16 -6l-2 -16q0 -1 -1 -2.5t-3 -1.5h-21q-3 0 -5 4l-1 16q-8 1 -16 6l-11 -9q-4 -2 -6 0l-15 16q-1 1 -1.5 3t0.5 3l9 12l-2 6q-3 7 -4 11l-15 2q-1 0 -2.5 1.5t-1.5 2.5v22q0 5 4 5l15 2q1 4 4 12l2 4l-9 12q-2 4 1 6
l15 16q1 2 3 2t3 -2l11 -9q6 4 16 7l2 15q0 2 1.5 3t2.5 1h21q3 0 5 -4l1 -15q10 -3 16 -7l11 9q1 1 3 1t3 -1l15 -16q3 -2 1 -6l-9 -12l2 -4q3 -8 4 -12l15 -2q4 0 4 -5v-22zM722 342q0 -3 -4 -5l-14 -1q-4 -12 -7 -17l9 -12q2 -2 0 -6l-15 -16q-4 -2 -6 0l-12 9
q-7 -4 -15 -6l-2 -16q0 -4 -5 -4h-21q-1 0 -2.5 1.5t-1.5 2.5l-2 16q-10 2 -15 6l-12 -9q-3 -1 -6 0l-15 16q-2 5 0 6l9 12q-3 5 -7 17l-14 1q-4 2 -4 5v22q0 5 4 5l14 2q3 10 7 16l-9 12q-2 4 0 6l15 16q2 2 3.5 2t2.5 -2l12 -9q3 2 12 6l3 1l2 15q0 2 1.5 3t2.5 1h21
q5 0 5 -4l2 -15q10 -4 15 -7l12 9q1 2 6 0l15 -16q2 -2 0 -6l-9 -12q4 -6 7 -16l14 -2q4 0 4 -5v-22zM927 744q-11 11 -26.5 11t-26 -11t-11.5 -25.5t7 -25.5l-104 -94l22 -23l90 109q11 -9 25 -8t24.5 12t10.5 27.5t-11 27.5z" />
    <glyph glyph-name="sand-clock" unicode="&#xe819;" 
d="M465 434q-42 63 -59 127q-3 9 2 18t13 9h158q9 0 13.5 -9t1.5 -18q-17 -64 -59 -127q-19 -28 -19 -64q0 -8 -4.5 -14t-11.5 -6t-11.5 6t-4.5 14q0 36 -19 64zM516 290q0 8 -4.5 14t-11.5 6t-11.5 -6t-4.5 -14q0 -21 -10 -42t-29 -38q-80 -74 -119 -158q-3 -11 1 -20
q1 -4 5 -7t8 -3h320q9 0 14 9.5t0 20.5q-39 84 -119 158q-19 17 -29 38t-10 42zM812 -48q0 -16 -9.5 -28t-22.5 -12h-560q-13 0 -22.5 12t-9.5 28t9.5 28t22.5 12h10q7 103 53 206q30 66 87 152q-57 86 -87 152q-46 103 -53 206h-9q-13 0 -22.5 11.5t-9.5 28.5t9.5 28.5
t22.5 11.5h559q13 0 22.5 -12t9.5 -28t-9.5 -28t-22.5 -12h-10q-7 -103 -53 -206q-30 -66 -87 -152q57 -86 87 -152q46 -103 53 -206h9q14 0 23.5 -12t9.5 -28zM706 -8q-6 65 -29 129q-20 53 -53 110q-20 34 -58 89l-3 4q-7 11 -7 26t7 26l3 4q38 55 58 89q33 57 53 110
q23 64 29 129h-412q6 -65 29 -129q20 -53 53 -110q20 -34 58 -89l3 -4q8 -11 8 -26t-8 -26l-3 -4q-38 -55 -58 -89q-33 -57 -53 -110q-23 -64 -29 -129h412z" />
    <glyph glyph-name="shield-alt" unicode="&#xe81a;" 
d="M502 -88h-4q-2 2 -3 2q-78 39 -144 96q-100 86 -146 190q-36 83 -36 159v159t-1 159q0 14 5 23.5t16 18.5q28 23 71 36q64 22 151 29l11 1q18 0 27 3h102l56 -6q80 -7 144 -31q23 -9 37 -17q19 -11 33 -25q10 -10 10 -25v-105q1 -140 0 -210q0 -95 -42 -181
q-58 -119 -188 -215q-40 -30 -99 -61zM500 355h260q12 0 16 1t5 5t1 16v257q0 10 -7 20q-12 13 -30 23q-12 7 -33 15q-45 16 -101 24q-42 5 -104 7q-5 0 -6 -2t-1 -7v-359h-274q-5 0 -6 -1.5t-1 -6.5q4 -91 54 -173q64 -105 187 -175q22 -13 40 -20v376z" />
    <glyph glyph-name="ship-wheel" unicode="&#xe81b;" 
d="M934 365q-9 23 -35 23q-23 1 -68 1q-4 0 -6 1.5t-2 5.5q-12 83 -63 150q-3 4 -2.5 6.5t4.5 5.5q30 30 45 46q13 13 13.5 28.5t-11 27t-27 11.5t-28.5 -13l-45 -45q-4 -4 -7 -4.5t-8 3.5q-65 49 -147 61q-5 1 -7 3t-2 6v24q1 32 0 48q-1 12 -9.5 21.5t-20.5 11.5
q-19 4 -32 -7.5t-14 -31.5v-66q0 -5 -1.5 -6.5t-5.5 -2.5q-86 -12 -150 -62q-4 -3 -6.5 -3t-5.5 3l-32 32l-16 16q-12 12 -27.5 12t-27 -11.5t-11 -27t11.5 -27.5q16 -15 46 -45q5 -5 5.5 -8t-3.5 -8q-49 -64 -61 -146q-1 -6 -3 -7.5t-8 -1.5q-48 0 -71 -1
q-15 -1 -24.5 -12.5t-9 -27t11 -25.5t26.5 -11h70q7 0 7 -6q12 -85 63 -152q3 -4 2.5 -6t-3.5 -5q-30 -30 -46 -45l-3 -4q-5 -6 -7 -9q-6 -13 -2.5 -26t14.5 -21.5t24.5 -8t23.5 10.5q17 16 50 49q3 4 5.5 4t6.5 -3q67 -50 149 -62q5 -1 6.5 -3t1.5 -6v-67q0 -24 19.5 -34
t37 -0.5t19.5 30.5q1 16 0 48v24q0 4 1.5 5.5t5.5 2.5q85 12 151 62q6 6 11 0l47 -48q16 -15 35 -12q22 4 29.5 26t-9.5 40l-48 47q-3 3 -3.5 5.5t2.5 6.5q49 63 63 149q1 9 10 8h22q29 1 44 0q18 0 30 14q14 17 5 39zM664 352q0 -18 -5 -40q13 1 39 1h39q6 0 7.5 -2.5
t0.5 -8.5q-10 -48 -38 -91q-3 -5 -5.5 -5.5t-6.5 3.5q-18 19 -55 56q-20 -34 -54 -54q27 -28 55 -55q4 -4 4 -6.5t-5 -5.5q-43 -28 -91 -38q-7 -1 -9 1t-2 9v75q-24 -4 -38 -4q-18 0 -38 5v-80q0 -4 -1 -6t-5 -1q-56 10 -103 45q41 41 62 61q-35 22 -55 54q-27 -29 -56 -56
q-3 -3 -4.5 -3.5t-4.5 3.5q-31 45 -40 97q-1 5 0.5 6t4.5 1h80q-4 22 -4 36q0 18 5 40h-78q-6 0 -7.5 1.5t-0.5 7.5q10 49 38 92q3 5 6 5.5t7 -4.5q27 -28 55 -55q19 31 54 54l-24 24q-22 22 -33 32q-4 4 -3.5 6t4.5 5q44 29 94 39q5 1 7 -0.5t2 -7.5v-79q22 5 41 5
q13 0 35 -4v77q0 6 2 7.5t8 0.5q52 -11 92 -38q5 -4 5 -6t-4 -6q-12 -11 -35 -35l-17 -17q-2 -2 -4 -3q33 -20 55 -54l46 47q9 9 12.5 11t6 -1t9.5 -14q22 -36 31 -79q2 -8 0.5 -9.5t-9.5 -1.5h-26q-34 -1 -51 0q5 -20 5 -37zM502 456q-30 0 -54.5 -14t-39 -38.5
t-14.5 -53.5t14 -53t38.5 -38.5t53.5 -14.5q45 0 76 31t31 76q0 28 -14.5 52t-38.5 38.5t-52 14.5zM549 391q-38 11 -69 -11t-33 -65q-14 18 -11 46q9 43 50 52q37 9 63 -22z" />
    <glyph glyph-name="skull-danger" unicode="&#xe81c;" 
d="M710 188q26 -14 46 -19q17 -4 31 4.5t17 25.5t-7.5 31.5t-28.5 15.5h-15q3 3 7 9q14 22 0.5 43t-39.5 18q-12 -2 -20 -10q-7 -7 -11.5 -19.5t-8.5 -40.5v-2q-2 -8 -8 -11q-166 -85 -371 -191q-7 -3 -12 0l-11 6q-18 8 -27 11q-16 5 -27.5 3t-19.5 -12t-9 -22
q-1 -14 5.5 -25t19.5 -16q7 -3 24 -3q-2 -3 -6 -7q-8 -11 -8.5 -23.5t6.5 -23t18 -15t24 -2.5q21 5 30 32q4 13 8 41q1 7 8 10q248 128 372 191q7 4 13 1zM347 387q13 -4 39 -8q5 0 5 -5l6 -79q0 -7 1.5 -8.5t8.5 -2.5q62 -4 97 -4q12 -1 43 1l16 1q21 2 32 2q5 1 7 3t3 8
l4 78q0 6 6 6q15 2 30 6q41 11 56 40q13 24 9.5 52.5t-21.5 49.5q-4 4 -4 9q2 18 4 50q2 36 -3 59q-10 42 -39 75t-70 51t-85 16q-66 -1 -118 -46q-63 -53 -64 -131q0 -14 2 -41l2 -28q2 -9 -4 -15q-17 -19 -20.5 -48.5t10.5 -53.5q15 -27 47 -37zM590 558q32 0 53.5 -21.5
t22 -53t-21.5 -53.5t-53 -22.5t-53.5 21.5t-22.5 53.5t22 53.5t53 22zM509 351q2 4 5.5 4t5.5 -4q4 -6 4 -19t-4 -19q-2 -4 -5.5 -4t-5.5 4q-9 18 0 38zM490 351q5 -7 5 -20q0 -10 -5 -18.5t-10 0.5q-4 6 -4 18.5t4 19.5q2 4 5 4t5 -4zM411 558q31 0 52.5 -22.5t21.5 -53.5
t-23 -53t-54 -21.5t-52.5 22.5t-21 53.5t22.5 53.5t54 21zM249 170q10 3 28 12l14 6q4 3 11 0q86 -44 129 -67l2 -1q4 -2 6 0l54 27q-1 2 -5 3l-2 1q-53 28 -159 82q-6 3 -8 11q-4 31 -10 46q-7 19 -22 24q-11 4 -23.5 1t-21 -12.5t-9.5 -22.5t7 -24l7 -11q-4 1 -9 1
q-21 1 -33.5 -14.5t-7.5 -34.5t19 -26t33 -1zM758 62q-15 -4 -44 -18l-4 -2q-5 -3 -11 0l-132 68q-4 2 -7 1l-53 -28l4 -3l40 -20q78 -41 118 -60q14 -7 15 -21q4 -30 13 -47q7 -12 19.5 -16.5t25.5 -0.5t21 15.5t6.5 24.5t-14.5 30h7q7 -1 11 0q16 4 25 17.5t5.5 30
t-16.5 25t-29 4.5zM403 262q0 -16 14 -16q6 0 9.5 4.5t3.5 11.5q0 11 -2 13t-14 3h-4q-5 1 -6 0t-1 -7v-9zM450 276q-10 0 -11.5 -1.5t-1.5 -11.5v-2q0 -19 13 -19t13 19q0 11 -1.5 12.5t-11.5 2.5zM586 278h-3q-10 -2 -12 -5t0 -13t11 -10q15 -1 15 19v5q0 4 -1 4.5
t-6 -0.5h-4zM470 249q0 -5 3.5 -8.5t8.5 -4t9 3t5 8t1 12.5q0 11 -1.5 12.5t-12.5 1.5q-6 0 -9.5 0.5t-3.5 -4.5v-21zM523 274h-15q-5 0 -5 -3q0 -16 1 -24q1 -5 5 -8t9 -2.5t8 4t4 8.5v21q0 5 -7 4zM551 276q-10 -1 -12 -2.5t-2 -12.5v-7q1 -6 5 -9.5t9 -3t8.5 4t3.5 8.5
v10q0 9 -1.5 10.5t-10.5 1.5z" />
    <glyph glyph-name="skull-face" unicode="&#xe81d;" 
d="M899 553q-1 32 -10 76q-3 13 -14 32q-22 42 -63.5 78t-101.5 63t-130 39l-15 2l-30 -31l51 -25l-191 -109l96 105l-66 32l24 34q-52 -3 -99 -16q-77 -21 -131 -62q-71 -52 -106 -136q-7 -18 -10 -40l-1 -14l-1 -5v-28l1 -9q4 -59 23 -122l1 -4q3 -11 11 -16
q14 -10 23 -32l12 -29q1 -4 2 -5q7 -14 3 -34q-3 -17 -13 -49l-12 -37q-3 -12 -2 -23l3 -23q1 -5 5 -13q5 -11 17 -13q25 -4 40 1q9 2 13 7q2 2 4 2q12 2 19 2q27 2 51 -7q11 -4 18.5 -11.5t8.5 -18.5l-1 -6q-4 -8 -5 -12q-1 -7 2.5 -12.5t10.5 -6.5t8.5 0.5t3.5 7.5l2 16
l3.5 10.5t7.5 6.5t8 -5q2 -16 1 -25q0 -5 -3 -8q-3 -7 -3 -15q0 -5 4 -6t6 -1q8 -2 14 -6t8 -6q8 -4 14 -3q4 0 5 4l2 27q0 1 1 5l1 2q0 2 3 4.5t5.5 2t4.5 -4t2 -5.5l-1 -14q-1 -6 1 -8q3 -7 9 -10.5t14 -1.5l6 2q11 5 11 16l5 39q2 0 3 -2l1 -3q2 -8 4 -11q0 -1 1 -4l1 -1
q1 0 1 -1l1 -2q5 -11 7 -26q0 -5 6.5 -7.5t16.5 -0.5q4 1 12 5q9 8 5 17l-1 5q2 1 5 0l2 -1q4 -2 6 -2l2 -4q6 -13 22 -16q10 -2 12.5 6.5t2.5 12.5v21q0 10 4 17q2 5 6 8q6 6 11 -2q4 -5 4 -15l1 -15q0 -7 4 -11q5 -10 16 -8q19 3 25 21q3 5 1 12l-4 13q-2 11 3 17
q9 12 17 17q16 12 40 17l5 1q9 2 13 1q8 -2 13 -4q12 -6 17.5 -8t12 -4t13.5 1l21 10l10 6q4 4 5.5 8.5t-0.5 10.5l-15 47q-7 27 -8 48q-1 24 9 55v1q6 11 14 35l3 10q7 18 20 24q28 17 39 51q7 21 9 44q1 5 1 16l1 5v31q-1 2 -1 6zM422 340q-29 -29 -72 -37q-39 -7 -81 6
q-39 13 -50 54q-8 31 5 58q14 30 45 36q3 1 9 1q8 1 22 1q36 0 59 -6q20 -5 33 -14q19 -10 33 -22l1 -1q10 -8 14 -14q12 -16 3 -34q-4 -9 -18 -24zM549 217q-7 0 -11 1q-11 2 -14 12l-5 9q-7 10 -16 10q-2 1 -5 1q-13 0 -19 -11l-5 -9q-4 -9 -13 -12q-8 -3 -16 -2
q-11 2 -11 13q0 8 5 16q7 16 21 38l7 13l12 21q2 2 3 4q5 7 13 7h4q12 1 18 -11l39 -69q5 -8 6 -15.5t-2.5 -11.5t-10.5 -4zM761 350q-14 -31 -45 -41q-37 -11 -69 -7q-59 5 -94 50q-8 10 -11 16q-9 18 3 34q6 9 18 18t36 23q20 11 46 14q13 2 43 2q16 0 25 -1q24 -3 40 -22
q12 -15 15 -35q3 -30 -7 -51zM712 -14q-4 11 -6 35v68q0 10 -1 16q0 9 -4 14q-6 6 -12 2l-6 -7q-3 -4 -6 -13l-1 -4l-10 -49q-2 -8 -8 -13.5t-13 -2.5l-9 4q-13 7 -25 7.5t-15 -9.5q-2 -3 -4 -11v-2q0 -6 -1 -10l-15 2q-2 0 -4.5 2.5t-3.5 4.5q-3 5 -10.5 7t-12 0t-6.5 -9
l-2 -6q-12 0 -18 -1q-1 1 -1 3l-3 9q-2 3 -6 3q-2 -1 -5 -1q-4 -2 -4.5 -3.5t-0.5 -4t-3.5 -2.5t-4.5 -1q-5 0 -8 4q-8 9 -18 12.5t-18 -4.5l-5 -7q0 -2 -2 -2q-8 -2 -13 -2l-2 4q-3 6 -10.5 9.5t-14.5 -4.5l-3 -8l-1 -6q-6 1 -16 1q-2 0 -3 2t-1 5v10q-1 6 -4 7.5t-8 2.5
l-4 1q-6 0 -18 2l-3 -3q-5 -7 -11 -1q-3 2 -5 5l-12 13q-4 5 -7 13l-1 5q-2 18 -4 26q-3 19 -16 30q-10 10 -15 -4q-1 -4 -1 -14q-1 -26 7 -56l4 -18q2 -10 2 -31v-8q1 -5 1 -14.5v-14.5q0 -17 5 -30q7 -18 23 -22q11 -3 22 -3l6 -1l54 -21l9 -3q25 -6 45 -19q8 -6 12 -8
q11 -7 24 -9l5 -2h26q1 1 4 1q14 1 28 9q6 4 9 5q8 4 13 4l9 2q30 5 43 29l23 27q5 7 16.5 11.5t19 6t14.5 5.5l13 9q11 8 8 22v4z" />
    <glyph glyph-name="snowmobile" unicode="&#xe81e;" 
d="M118 214q14 73 79 120q57 41 150 58q24 4 37 5q4 1 5.5 2t1.5 5v112q0 5 -2 6.5t-6 0.5h-62q-12 0 -19.5 6.5t-7.5 17.5t7 18t20 7h189q11 0 18 -5.5t9 -13.5t-1.5 -15.5t-11.5 -11.5q-5 -3 -14 -3h-61q-5 0 -7 -1.5t-2 -6.5v-108q0 -3 1 -9l1 -2q14 -30 26 -58
q6 -14 21 -14h327q10 0 14.5 3t7.5 13l49 150q1 6 3.5 7t7.5 -3q35 -31 31 -71q-12 -111 -65 -211q-3 -6 -7 -8t-10 -2h-718q-7 0 -9.5 2t-1.5 10zM476 400q2 -6 7.5 -17.5t7.5 -17.5q4 -9 14 -9h297q4 0 6 1t3 5l45 137q-10 -3 -17 -8t-15 -15q-27 -35 -50 -68
q-3 -5 -7 -6.5t-10 -1.5h-281zM905 194h-809q-14 0 -23.5 -9.5t-9.5 -23.5t9.5 -23.5t23.5 -9.5h809q14 0 23.5 10t9.5 23.5t-9.5 23t-23.5 9.5z" />
    <glyph glyph-name="space-shuttle" unicode="&#xe81f;" 
d="M829 787q31 1 79 -8q8 -1 12 -5t6 -12q40 -251 -147 -388q-77 -57 -178 -122q-60 -39 -182 -115l-57 -35q-8 -5 -13.5 -4.5t-11.5 7.5q-29 29 -87 85q-6 6 -7 11.5t4 12.5l59 94q70 113 107 169q61 93 114 165q106 142 302 145zM634 573q0 -36 25 -61t61 -24.5t61 25.5
t24.5 61t-26 61.5t-60.5 25t-60 -26t-25 -61.5zM422 586q-26 -40 -75 -117l-46 -72q-4 -7 -8.5 -8t-12.5 2q-72 35 -158 4q-11 -5 -18 -5q-10 0 -16 9q-12 17 7 36l37 37l75 75q40 39 105 39q23 -1 71 0h39zM732 206v-42q-2 -67 -43 -108q-59 -57 -104 -105q-22 -20 -40 -9
q-9 7 -9 17q1 6 6 19v0q30 84 -5 157q-3 7 -2 11.5t8 8.5q59 37 175 113q8 6 11 3.5t3 -11.5v-54zM230 135q-24 -14 -34 -30q-13 -19 -10 -44q1 -13 9.5 -21t21.5 -9q24 -3 43 10q15 10 29 34l6 -5q18 -14 22 -20q6 -8 4 -19q-1 -8 -11 -33q-17 -47 -81 -63q-28 -8 -84 -13
q-38 -3 -57 -6q-12 -2 -20 -4q5 25 10 76q5 61 13 90q16 56 62 77q20 9 31 10.5t21 -5.5t25 -25z" />
    <glyph glyph-name="star-shape" unicode="&#xe820;" 
d="M500 776l12 -33l94 -264q2 -4 4 -5.5t6 -1.5h321q-3 -3 -5 -4l-207 -170q-3 -2 -5 -2t-6 2l-207 152q-4 3 -7 3t-7 -3l-207 -151q-5 -5 -11 0l-207 168q-3 3 -6 5h321q5 0 7.5 1.5t3.5 5.5l103 290zM745 36q-1 2 -3 5l-237 181q-3 2 -5 2t-5 -2q-156 -120 -234 -179
q-5 -5 -6 -9q-8 -24 -22 -72l-12 -37q3 0 5 2l269 205q3 2 5 2t5 -2l198 -151l75 -58v4zM505 385q-3 2 -5 2t-5 -2l-141 -108l-34 -26l-35 -116l210 160q3 2 5 2t5 -2l210 -160l-36 116zM285 135v0v0z" />
    <glyph glyph-name="swirl" unicode="&#xe821;" 
d="M938 136q-1 -6 -3 -17q-3 -18 -5 -27q-34 -112 -148 -144q-53 -15 -106 -4t-96 45.5t-68 85.5q-17 35 -24 81q-10 62 -53.5 107.5t-105.5 56.5t-116.5 -18.5t-76.5 -86.5q-19 -50 -2.5 -101t60.5 -76q37 -22 78 -16.5t68 34.5q20 22 24.5 50t-8.5 53q-11 22 -32.5 32.5
t-42.5 3.5q-26 -8 -32 -33q-1 -12 5 -21q4 -6 11.5 -7t12.5 7q3 5 8.5 5.5t11 -4.5t7.5 -13t-1 -16q-5 -16 -20.5 -24.5t-33.5 -5.5q-27 5 -44.5 27t-16.5 51q1 35 25.5 62.5t60.5 33.5q48 9 89.5 -17.5t56.5 -74.5q16 -52 -4 -102.5t-67 -79.5q-51 -31 -112 -25t-105 46
q-79 72 -69 177q7 69 52 122t113 73q81 24 161 -8q89 -34 168 6q92 47 102 145q4 42 -10.5 79t-44 62t-66.5 33q-32 7 -64 -1t-55.5 -29.5t-33.5 -51.5q-11 -34 -1 -66.5t37 -51.5q25 -17 53.5 -14.5t46.5 22.5q21 24 12 51q-4 12 -12.5 18.5t-19.5 4.5q-8 -1 -11.5 -6.5
t-0.5 -13t-2 -12.5q-7 -9 -18 -7t-19 12t-9 23q-1 22 14.5 40t39.5 22q32 5 59.5 -13.5t38.5 -53.5t-3.5 -71t-47.5 -58q-40 -26 -89 -21t-85 40q-29 28 -42 65.5t-8.5 77t27.5 73.5q51 79 150 87l3 1q4 0 5 1h10l9 -2q93 -6 152 -79q35 -43 45.5 -98t-4 -109.5t-51.5 -96.5
q-10 -11 -33 -30q-15 -13 -22 -20q-32 -31 -47 -72t-11.5 -84.5t25.5 -81.5q29 -49 81 -71t105 -9q37 9 64.5 34t39 59t4.5 69q-9 44 -44 70.5t-77 21.5q-33 -5 -54.5 -29t-19.5 -55q2 -18 13.5 -32t27.5 -18q11 -3 21.5 1.5t14.5 13t1 14.5t-10.5 7t-10.5 6.5t-0.5 13.5
t10 13t17.5 5q16 1 30 -9.5t18 -27.5q12 -41 -18 -72q-23 -24 -58 -27t-65 17q-32 21 -45.5 58.5t-3.5 77.5q14 51 58 81q47 32 104.5 25.5t100 -46.5t53.5 -97l1 -7q1 -15 3 -23v-16z" />
    <glyph glyph-name="tattoo-wing" unicode="&#xe822;" 
d="M500 161v32q0 3 -4 5h-1q-79 30 -140 77q-75 57 -107 126q-30 62 -22 133v1q1 2 1 4q6 -19 13 -31q17 -38 53 -80q68 -77 179 -128l29 -13q2 -2 4 -1t2 4v19q0 3 -4 5h-1q-68 30 -130 80q-77 62 -110 133q-30 60 -27 127q2 42 15 84l8 -29q15 -54 53 -112
q68 -100 188 -173q39 -25 88 -48q5 -3 4 -8q-19 -50 -26 -99q-8 -58 -2 -111q6 -60 28 -114q1 -5 -4 -8q-36 -31 -112 -91l-38 -31q-2 -2 -3.5 -1.5t-1.5 3.5l-9 48q-1 3 3 7l70 73q4 4 3.5 5t-5.5 3q-99 50 -167 124q-65 70 -83 150q-5 21 -6 43q43 -73 114 -127
q61 -46 148 -81zM334 788q11 -28 19 -45q29 -63 82 -122q66 -73 156 -115q32 -15 52.5 -22t48.5 -29q49 -37 73 -80q7 -10 9 -23q1 -4 1 -12q-2 -6 -7 -2q-17 15 -32 16q-7 1 -13 -3q-44 -36 -47 -92q-1 -23 15 -94q9 -36 7 -38q-18 -16 -56 -48l-30 -26q-5 -5 -7 2
q-16 35 -22 77q-4 24 -4 73q1 75 31 162q3 8 2.5 10.5t-7.5 7.5q-12 11 -39 29l-15 11q-71 53 -111 94q-60 62 -87 122t-23 122q0 5 2 15l1 8z" />
    <glyph glyph-name="throne" unicode="&#xe823;" 
d="M706 61q0 -89 1 -133q0 -9 -3 -12.5t-12 -3.5q-27 2 -54 0q-10 0 -14 3.5t-4 13.5q1 34 1 101v100q0 13 -3.5 17t-16.5 4q-102 -2 -206 0q-9 0 -12.5 -3t-3.5 -13q1 -34 1 -102.5v-103.5q0 -10 -3.5 -13.5t-13.5 -3.5q-19 1 -58 1q-7 -1 -9.5 1.5t-2.5 9.5v270
q0 19 12 30.5t31 12.5h54q8 0 11 2.5t3 10.5v42q-1 56 0 84q1 9 -2.5 11t-10.5 3h-4q-8 0 -11.5 -3t-2.5 -12v-26q-1 -35 0 -52q0 -8 -2.5 -11t-10.5 -3h-171q-16 0 -26 9.5t-10 23.5t10 23t26 9q51 1 101 0q10 0 14 3.5t3 13t0 28.5v15q0 41 23 65t63 25q102 2 204 0
q40 -1 62.5 -24t24.5 -63v-16q1 -21 0 -31t2.5 -13t12.5 -3q19 1 55.5 1h54.5q26 0 35 -23q6 -15 -2.5 -28.5t-24.5 -13.5q-63 -1 -189 -1q-6 0 -8 3t-2 9q0 52 1 78q0 10 -3.5 13.5t-13 3t-13.5 -3t-4 -12.5q1 -41 1 -123q-1 -8 2 -11.5t12 -2.5q13 1 39 0h20q47 0 47 -47
v-129zM846 88q0 -107 1 -161q0 -8 -3 -11.5t-12 -2.5h-83q-6 0 -8.5 2t-2.5 9q0 218 -1 327q0 9 3.5 11.5t11.5 2.5q40 -2 79 0q9 0 12.5 -3.5t3.5 -12.5q-1 -53 -1 -161zM154 89v160q-1 9 3 12.5t13 3.5q40 -1 80 0q7 0 10 -3t3 -10q-2 -164 0 -326q0 -8 -3 -11t-11 -2
q-53 0 -80 -1q-9 0 -12.5 3t-2.5 13v161zM417 14v87q0 7 2.5 9t9.5 2h142q7 0 9 -2.5t2 -9.5v-175q0 -7 -2.5 -9.5t-9.5 -2.5h-142q-6 0 -8.5 3t-2.5 9v89zM499 516q-31 -1 -53 20.5t-23 53t21.5 54t53.5 22.5t53.5 -22t22.5 -53t-22 -53t-53 -22zM529 740l-33 48l-34 -48
l-66 19l32 -91q15 12 32 18q13 5 26 7l10 1l10 -1q13 -1 25 -6q17 -7 32 -19l33 91z" />
    <glyph glyph-name="tree-alt" unicode="&#xe824;" 
d="M421 -88q27 27 40 47q18 28 22 58q3 21 1 61v1q0 10 -10 16l-12 6q-28 17 -44 22q-25 9 -49 7q17 13 41 17q15 2 45 1l13 -1q-23 73 -57 125q-11 17 -29 22.5t-40 1.5q-61 -12 -101 1l-6 2q-15 7 -24 14q30 -7 59 -1q24 5 52 19q19 10 29 14q17 6 32 5q6 0 7.5 3t1.5 9v2
q0 32 4 54q4 29 16 52q2 2 3 5l1 2q9 15 11 21t-0.5 12t-12.5 19l-1 2q-30 40 -72 56q10 2 16.5 1.5t20.5 -5.5q40 -12 74 -45q6 -6 10.5 -5.5t10.5 6.5q23 24 34 58q10 27 13 66q1 4 1 15q6 -15 8 -32q1 -10 1 -30q2 -34 -8 -63t-27 -55l-8 -14q-9 -13 -12 -20
q-6 -12 -8 -25q29 17 65 22q22 3 66 3q26 0 39 1q39 1 56 7.5t49 29.5q-7 -15 -26.5 -30t-43.5 -23t-76 -15l-30 -4q-45 -7 -85 -44q-9 -8 -7 -18q0 -8 7 -18q13 -20 43 -56q18 -21 26 -32q3 -4 6 -5t8 2q25 15 55 15q23 0 55 -10q35 -11 54 -12q30 -3 55 10
q-16 -21 -41 -31q-19 -7 -49 -10l-17 -1q-31 -2 -46 -7q-19 -7 -23.5 -18t4.5 -29q60 -120 42 -236q-2 -12 -4 -18h-228zM315 591q-32 -20 -68.5 -17.5t-65.5 25.5q19 18 44 23t49.5 -3t40.5 -28zM624 730q0 -29 -16 -52.5t-40 -30.5l-2 -1q-11 -4 -15 -0.5t0 11.5l1 4
q10 56 49 81q9 6 18 9q5 0 5 -21zM819 640q10 -21 6.5 -45t-18 -43t-35.5 -26q-6 -2 -9 0t-3 9q3 72 59 105zM710 453q56 29 117 2q8 -4 7.5 -7t-5.5 -8l-2 -2q-25 -24 -59.5 -19.5t-57.5 34.5zM811 270q-9 -1 -11 2.5t2 13.5q22 53 74 66v0q7 1 10 -0.5t2 -8.5
q-1 -29 -24 -51t-53 -22zM679 592q18 -59 -31 -108q-6 -6 -9.5 -5t-5.5 9q-12 32 0.5 61.5t45.5 42.5zM633 338q-43 24 -41 78q0 6 2.5 7t7.5 -1q24 -12 33.5 -35.5t-2.5 -48.5zM272 270q-2 -27 -19 -48t-41 -28q-13 -4 -16.5 -1t-0.5 17q10 55 65 69q8 2 10.5 0t1.5 -9z
M812 156q-26 0 -46.5 15t-25.5 38q-2 7 0 9.5t9 2.5q56 -3 85 -44q7 -10 4.5 -14t-13 -5t-13.5 -2zM300 357q1 -6 -0.5 -12.5t-5.5 -9t-15 5.5l-4 3q-42 25 -43 71q0 7 2 9.5t10 1.5q24 -5 40 -24.5t16 -44.5zM300 504h-1q-15 1 -21 3q-12 4 -15 12q-2 6 5 13q4 4 15 11l4 2
q31 21 68 14q13 -2 7 -13q-12 -21 -25 -30q-15 -11 -37 -12zM179 317q-26 2 -44.5 17.5t-22.5 40.5q-1 7 0.5 9t8.5 2q49 0 72 -45q8 -16 5.5 -20t-19.5 -4zM757 337q0 -23 -14 -42t-35 -25q-5 -2 -7.5 -0.5t-4.5 6.5q-5 17 0.5 34.5t19.5 29.5t32 13q7 0 8.5 -2.5t0.5 -7
t0 -6.5zM295 58q-17 0 -20 5.5t4 21.5q20 41 62 36q7 0 8.5 -2.5t0.5 -9.5q-5 -23 -19.5 -36.5t-35.5 -14.5zM397 637q0 -31 -15 -36q-5 -2 -11 2q-3 3 -8 11q-5 6 -7 8l-2 3q-9 13 -9.5 32t7.5 29q3 4 9 2h1q16 -6 25.5 -20t9.5 -31zM534 735v-4q-1 -13 -3 -19
q-3 -10 -9.5 -13t-12.5 2q-4 3 -11 12l-5 7q-19 23 -7 60q2 6 5.5 7t9.5 -2q33 -18 33 -50zM389 160q-24 -1 -42 17l-2 2q-8 9 -10 13q-5 8 -1.5 13.5t13.5 8.5t20 2q28 -3 40 -27q9 -17 5 -23t-23 -6zM445 698q23 -1 38 -16t14 -36q0 -6 -1.5 -9t-7.5 -3q-21 0 -37.5 11.5
t-21.5 30.5q-4 14 -1 18t17 4zM381 50q0 39 37 56q5 2 7.5 1t5.5 -5q11 -20 2.5 -41.5t-30.5 -27.5q-14 -4 -18 -0.5t-4 17.5z" />
    <glyph glyph-name="triangle" unicode="&#xe825;" 
d="M757 574l179 -180v360zM911 363l-184 182l-190 -188l183 -184zM908 788h-814l407 -406zM64 754v-814l405 407zM342 160h322l-161 161zM936 -53v382l-190 -191zM303 120l-214 -208h371l208 208h-365zM520 -86h381l-191 190z" />
    <glyph glyph-name="unity-hand" unicode="&#xe826;" 
d="M191 667q-3 8 2.5 14.5t13.5 4.5q4 0 10 -2q20 -8 60 -22l10 -4q23 -8 34 -11q5 -1 14 -4t14 -4.5t9 1.5q2 1 2.5 3t-1.5 3q-7 8 -19 15q-5 3 -13.5 8.5t-27.5 16.5l-40 21l-8 5l-13 7q-6 3 -6.5 9t3 11t7.5 6.5t10 0t16 -7.5l4 -2q20 -10 44 -23l39 -20q17 -8 30 -12h2
q2 0 3 2t-1 4l-16 17l-19 16q-10 10 -16 14l-9 9l-5 4q-11 10 -15.5 14.5t-5.5 10t1 10t6.5 6t9 0t9.5 -6.5l21 -16q14 -9 25 -19q22 -16 31.5 -25.5t24.5 -19.5q9 -6 31 -12l5 -2q10 -2 30 -10q8 -3 21 -11l6 -3q7 -4 20 -15l4 -4q16 -14 19 -27q1 -7 0 -14q-3 -13 -10 -23
q-6 -7 -10 -24l-2 -7q-1 -5 -2 -16l-1 -8q-3 -18 -17 -31q-7 -7 -23 -18l-6 -4l-15 -9q-9 -5 -23 -5q-18 -2 -32 -8q-5 -2 -14 -9l-5 -3q-9 -7 -19.5 -8.5t-24.5 -11.5q-5 -4 -15 -10q-4 -1 -8.5 2t-5.5 8q-1 12 10 25q7 10 24 16q6 1 12 7q18 14 27 20l8 3q7 3 7.5 7.5
t-3.5 11.5q-2 4 -9.5 7t-23.5 13.5t-33 10.5l-27 4q-8 1 -24 1l-19 1q-25 2 -38 4q-24 2 -36 4q-15 2 -14 16q1 6 6 10t11 3q27 0 43 -1l33 -1q25 -1 37 -1q11 -2 19 5q4 2 4.5 6t-3.5 8q-1 1 -5 3l-3 2l-34 13q-9 3 -24.5 9.5t-23.5 8.5l-32 13q-10 3 -14 6q-10 4 -14 7
t-4 7zM442 198q-1 3 -6 10l-3 5q-11 13 -12.5 24t-8.5 20l-3 4q-7 10 -9 16q-5 10 -7 31q-2 16 -6 23q-1 3 -6 10l-3 5q-12 20 -22 30q-13 15 -30.5 16.5t-27.5 3.5q-20 4 -28 11t-20 10q-14 3 -27.5 -5.5t-19.5 -17.5l-16 -20l-6 -11q-5 -10 -7 -15l-4 -11q-6 -15 -8 -22
l-1 -6q-3 -13 -6 -18q-10 -18 -26 -36q-10 -10 -26 -32l-14 -18q-2 -4 -3 -5q-4 -4 -11 -13l-7 -9l-5 -10q-1 -3 0.5 -7t3.5 -6q5 -3 10.5 -3t9.5 4l15 15q5 7 15 18l31 36l15 14q3 3 4.5 1.5t1.5 -4.5v-1q-2 -10 -10 -28q-4 -7 -12 -22l-10 -19q-5 -8 -14 -26l-12 -23
q-5 -10 -6.5 -15.5t0 -9.5t7 -7.5t12 -2t8.5 7t4 7.5l4 8q4 5 5 8l19 35q4 9 15 27l5 7q2 4 6 10q7 12 14 18q4 3 6.5 -1.5t0.5 -8.5q-2 -10 -8 -30l-3 -8q-12 -38 -20 -56l-3 -10q-4 -11 -6 -16l-7 -20q-3 -18 16 -19q6 0 9 3.5t7 10.5l5 13q9 22 13 34q14 34 20 51
q2 8 8 22l6 13q2 5 4 8q4 4 8 3.5t7 -5.5q5 -6 5 -18l-1 -26q-2 -31 -2.5 -46t-0.5 -41q-1 -1 0 -3v-2q3 -11 16 -13q5 0 8.5 4t4.5 9q2 14 4 38q2 14 4 40l1 16q0 16 1 24l2 11q2 10 2 15q0 19 11 35q7 9 14 25q2 5 7 7q7 4 11 4t7 -7l3 -9l5 -7q9 -12 14 -18q4 -3 8 -13
q6 -17 15 -25q8 -5 12 -7q7 -3 13 -2.5t9 5t2 8.5zM806 39q-10 6 -15 8l-46 19q-8 3 -23.5 9.5t-23 8.5t-20.5 7l-15 7q-6 2 -8 4q-8 8 0.5 14.5t19.5 4.5q48 -2 74 -2l38 -2q7 0 12.5 4t6 12.5t-7.5 11.5q-2 1 -7 2l-3 1l-72 7l-17 1q-16 0 -24 1l-26 4q-19 0 -33 10l-8 4
q-13 8 -19.5 11t-9.5 11.5t5 12.5q6 2 9 4q18 12 26 20q4 3 12 7q18 5 25 15q10 13 10 25q0 7 -5 9.5t-11 0.5l-14 -9q-14 -10 -23.5 -11t-19.5 -8q-6 -6 -18 -13q-14 -7 -33 -7q-16 -2 -23 -6q-4 -1 -10 -6l-5 -3q-18 -12 -30.5 -22.5t-15.5 -29.5l-3 -25l-2 -7
q-4 -17 -10 -24q-9 -12 -10 -23q-1 -7 0 -14q3 -13 19 -27l4 -4q13 -11 20 -15l11 -6q10 -5 15 -7l9 -4q15 -6 23 -7q21 -5 35 -14t25 -19q7 -7 23 -20l35 -27l12 -9q11 -8 17 -11q4 -1 8.5 0.5t6.5 6t1.5 9.5t-4.5 9q-11 11 -17 16l-6 6t-7 5q-6 4 -16 14l-8 7
q-17 14 -24 23q-4 4 -5 6t-0.5 3t2.5 1h4q13 -3 28 -11l40 -21q8 -5 26 -14l26 -13q8 -5 13.5 -6t9 0.5t7.5 7t2.5 11.5t-8.5 9q-2 0 -4 2q-6 5 -20 12q-10 5 -15 8l-52 29l-9 6q-9 5 -19 15q-4 4 1 6.5t9 0.5q10 -2 30 -8q29 -10 64 -23l8 -2q12 -4 18 -7q14 -6 21 -7
q9 -2 13 4q7 7 4 16q0 2 -3 5zM933 545q-5 3 -11 2.5t-10 -4.5q-11 -11 -16 -17q-1 -2 -5 -6t-6 -7q-4 -6 -14 -16l-7 -8q-14 -17 -23 -24q-4 -4 -7 -5t-3 3v3q3 14 11 29l21 39q5 8 13 25l13 25q5 9 6.5 15t0 10t-7 7.5t-12 2t-8.5 -8.5l-3 -6l-10 -17l-19 -36l-21 -35
q-3 -3 -4 -6q-5 -9 -15 -19q-2 -2 -3.5 -1.5t-2.5 2.5q-3 4 -1 10q3 12 8 28l34 97q4 10 5 16q2 8 -4.5 13.5t-15.5 3.5q-4 -2 -5 -4q-6 -8 -8 -13q-10 -24 -17 -44q-3 -8 -9 -23q-8 -18 -11 -27.5t-11 -27.5l-3 -8q-2 -6 -5 -9t-7 -2.5t-7 4.5q-5 8 -5 19l1 23q2 34 2 52
l1 43q-3 11 -15 13q-6 0 -9.5 -4t-4.5 -9l-3 -22q-4 -35 -5 -56l-1 -16q0 -15 -1 -23l-4 -26q0 -20 -13 -40q-6 -7 -11 -19q-1 -5 -7.5 -9t-11 -3.5t-7.5 7.5l-3 8q-4 6 -14 18l-6 8q-4 4 -7 12q-6 17 -15 25l-2 1q-7 5 -11 6q-6 3 -12 2.5t-9.5 -5t-1.5 -9.5q6 -10 10 -15
q10 -14 11 -24t9 -19l5 -7q7 -11 9 -16q5 -17 5 -29q2 -16 6 -23l11 -17q12 -19 20 -27q13 -15 30 -16.5t25 -3.5q21 -3 33 -12q5 -5 18.5 -9t27 4t28.5 29q14 19 20 35l3 8q6 17 8 26q5 20 13.5 34t18.5 24q14 14 27 32l7 9q8 10 12 16q9 13 17 22q2 3 4 9q2 3 1 7.5
t-4 5.5z" />
    <glyph glyph-name="weed" unicode="&#xe827;" 
d="M902 254q24 18 36 26l-32 -2l2 7l-15 -12v9l-19 -9l-3 7v-1l-1 3l-14 -14l-1 10l-1 5l-16 -19l-2 16l-19 -18l-1 10l-15 -21l-5 11l-12 -16l-3 10l-16 -17q-1 5 -3 7q-10 -8 -15 -13l-4 7l-15 -17l-1 9q-5 -6 -15 -16l-3 6l-17 -21l-3 10q-7 -9 -17 -21l-4 5l-17 -20
l-3 8q-10 -12 -15 -19l-3 8l-10 -14l-9 -11l-3 4q-42 -53 -89 -83q-1 1 -1 3q8 17 46.5 56t70.5 63q-1 2 -5 4l5 3q8 6 12 8l19 12l-14 1l33 18l-4 2v0l-10 4l26 20l-8 4q6 5 18 13l13 9l-11 5l21 15l7 5l-9 5l21 15l-7 6l20 17q-4 2 -10 4q14 12 23 19l2 1l-14 3l23 20
l-10 4q12 10 19 17l-11 4l24 21h-3l-11 2l23 22l-16 1l26 24h-19l17 22l-11 3l22 26l-12 1l26 60l-43 -32l-6 -5q-2 2 -4 6l-2 3l-17 -35l-8 9q-5 -10 -10 -25l-11 14l-8 -28l-10 10l-9 -29l-8 11l-9 -30l-8 8q-3 -15 -7 -26l-4 9l-4 -1l-6 -28l-2 -3l-4 10h-4l-7 -27l-8 7
l-6 -26l-7 4l-4 -14q0 -4 -1 -6.5t-6 -1.5q-1 0 -2.5 -2.5t-1.5 -4.5q-2 -9 -4 -25q-2 1 -5 3l-5 4l-5 -36l-8 3q-3 -16 -7 -30l-7 5q-1 -7 -4 -19l-3 -11l-9 6l-2 -38h-7q-9 -84 -49 -158q-1 1 -3 1q7 81 38 161l14 24h-12l24 40l-15 -5l12 34h-11l13 33l-11 1q3 10 10 28
l4 9h-10l14 33l-9 2q2 9 8 27h-8l8 28l-12 -2l11 32l-15 -3l12 32l-14 -4l10 28l-13 -2l10 33l-14 -4l8 33q-10 -4 -16 -7l11 35l-20 -8l6 29l-16 -4l7 31l-13 -3v21l-7 -10l-9 51l-8 -51l-8 10v-21l-13 3l8 -31l-16 4l5 -29l-20 8l2 -4l10 -31l-17 7l8 -33l-14 4l11 -33
l-14 2l11 -28l-14 4l11 -32l-15 3l3 -7q6 -16 8 -25l-12 2l9 -28h-8q2 -9 8 -27l-9 -2l13 -33h-10l4 -9q7 -18 10 -28l-11 -1l14 -33h-12l13 -34l-16 5l24 -40h-12l14 -24q31 -80 38 -161l-2 -1q-39 71 -50 158h-7l-1 38l-10 -7q-4 20 -7 31l-7 -5q-4 20 -7 30l-7 -3l-6 36
l-9 -7q-2 9 -4 25l-1 1q-2 6 -3 5q-4 -1 -5.5 1t-2.5 5v5q-2 8 -4 11l-6 -3l-1 4q-3 14 -6 21l-8 -6l-7 27h-3l-5 -10l-2 2l-6 28l-3 2l-5 -9q-3 16 -7 25l-7 -8l-9 31l-9 -11l-8 29l-10 -10l-2 8q-5 13 -6 20l-11 -14q-7 15 -10 25l-9 -10l-16 36l-2 -3q-2 -4 -4 -6l-5 3
q0 1 -1 1l-43 33l25 -60l-11 -1l18 -21l4 -6l-11 -2l17 -22h-20l13 -12q8 -8 13 -12l-16 -2l23 -21l-14 -3l25 -21l-12 -4q12 -10 20 -16l-10 -4l22 -20l-13 -3l24 -20l-9 -4q6 -6 20 -18l-7 -5l20 -15l-8 -5l28 -20l-11 -5l8 -6q15 -11 23 -16l-8 -4l26 -20l-11 -4h1l-4 -2
l33 -18l-15 -2l20 -11q3 -2 10 -7l7 -4q-2 -2 -6 -4q33 -25 71.5 -63.5t46.5 -55.5q-1 -1 -1 -3q-49 31 -90 83l-3 -5l-18 25l-3 -7q-3 3 -8 10l-7 9l-3 -8l-6 7q-8 8 -11 13l-4 -5q-6 6 -18 20l-2 -9l-18 21l-3 -6l-15 15l-1 -8l-14 16l-5 -6l-15 13l-1 -2q-1 -3 -2 -5
l-16 16l-3 -9l-12 16l-4 -11l-16 21l-1 -11l-19 19l-2 -17l-16 20v-5h-1v-11l-15 15l-1 -3v0l-3 -6l-19 8l1 -8l-16 11l2 -7l-31 3q11 -9 35 -27l-4 -5l17 -8l-5 -6l17 -7q-1 -3 -4 -6l-2 -3l18 -6l-8 -6l24 -6q-1 -2 -3 -4l-2 -3l22 -5l-5 -6l18 -4l-3 -7l17 -4l-4 -9
l25 -1l-5 -8l17 -4l-11 -8l25 2l-7 -8l36 -3l-8 -10l28 1l-8 -8l24 -1l9 -1l-3 -6q16 -2 22 -3l-4 -4l10 -1q2 -1 6 -1l-1 -4l14 3l-4 -4h18q41 -7 90 -27q-3 -3 -6 -3l-39 4q-6 1 -20 1l-15 1l-12 3l-5 -4l-11 4l-6 -6l-9 4l-4 -7l-9 6l-2 -6l-8 4l-3 -8l-12 3l2 -9l-15 7
l3 -10l-12 5v-9l-10 6l-4 -8l-11 2v-7h-12l5 -8l-13 1l4 -8l-16 -1l5 -6h-9l-30 -25l20 3l4 -5l9 4l3 -8l6 5l6 -8l7 8v-9l13 4l-1 -7l12 6l-2 -9l16 9l2 -5l10 7l4 -7l17 9l4 -8l9 10l6 -7l6 11l7 -6l7 10l2 -6l12 10v-6l10 11l3 -6l5 8l4 -3l6 10h1l9 4q11 5 16 8l57 30h1
l1 -2q1 -3 3 -5q-64 -28 -96 -72q-13 -19 -20 -41q-2 -6 -4 -10l10 3q18 6 27 10.5t27 20.5l5 5q15 15 21 23t16 26l8 13l11 17q2 -2 4 -2q-5 -34 -5 -56q1 -31 11 -56q10 25 11 56q1 21 -4 56q1 0 3 2l11 -17l8 -13q10 -18 16 -26t21 -23l5 -5q18 -16 27 -20.5t27 -10.5
l10 -3q-2 6 -4 10q-6 21 -19 41q-34 44 -97 72q2 2 3 5l1 2h2l56 -30q5 -3 16 -8l9 -4h1l6 -10l4 3l5 -8l3 6l10 -11l1 6l11 -10l2 6l7 -10l7 6l6 -11l6 7l9 -10l4 8l17 -9l4 7l10 -7l2 5l16 -9l-2 9l12 -6l-1 7l13 -4v9l7 -8l6 8l7 -5l2 8l9 -4l4 5l20 -3l-30 25h-8l4 6
l-16 1l4 8l-13 -1l5 8h-12v7l-11 -2l-4 8l-9 -6v9l-13 -5l3 10l-15 -7l2 9l-12 -3l-3 8l-8 -4l-2 6l-9 -6l-4 7l-8 -4l-7 6l-10 -4l-6 4l-12 -3l-15 -1q-14 0 -20 -1l-39 -4q-3 0 -6 3q49 20 90 27h18l-3 4l13 -3l-1 4l16 2l-4 4l22 3l-3 6l33 2l-8 8l29 -1l-10 10l36 3
q1 0 -3 4l-4 4l26 -2l-11 8l17 4l-5 8l25 1l-4 9l16 4l-3 7l19 4l-6 6l23 5q-4 4 -6 7l24 6l-8 6l19 6l-7 9l17 7l-4 6l16 8z" />
    <glyph glyph-name="woman-bird" unicode="&#xe828;" 
d="M937 551q-6 -74 -23 -119q-16 -48 -28 -71q-36 -65 -91 -105q-58 -41 -121 -55q3 23 1 50q48 13 93 48q42 34 72 85q27 46 41 105q7 32 7 82v24q-2 -4 -13 -15q-31 -29 -82 -49q-23 -9 -69 -22l-39 -10q-29 -8 -44 -12q-24 -8 -42 -17q-8 -4 -11 -5q-15 17 -40 37v0
q28 14 87 34l43 14q78 25 115 43q66 31 112 76l3 3q10 10 14 16q7 -19 11 -48q6 -35 4 -89zM625 266q-3 37 -16 70q-10 26 -37 67q0 2 -2 4q-22 31 -56 58q-37 29 -93 51l-8 3q-20 8 -30 11l-97 32q-43 14 -79 31q-68 33 -112 76q-8 8 -17 20q-4 -13 -9 -37l-2 -12
q-6 -42 -4 -89q5 -69 23 -119l7 -20q12 -34 21 -51q37 -65 92.5 -105t119.5 -55q-4 21 -2 51q-47 11 -91 47q-43 33 -73 85q-27 46 -40 105q-8 32 -8 84v20l12 -12q11 -11 26 -21l2 -1q48 -28 92 -41q28 -7 49 -13l26 -8q30 -8 45 -13l29 -10l5 -3l16 -6l1 -1q61 -26 95 -70
q12 -14 19 -26q33 -52 39 -114t-18 -121q-14 -35 -41 -67q-5 -6 -8.5 -6t-9.5 6q-3 3 -4 5q-12 14 -24 33l-9 17q-23 46 -27 90q-9 92 44 158q-14 17 -42 38q-28 -38 -43 -85l-5 -17q-14 -55 -5 -110l4 -24q24 -107 103 -178q10 -9 15.5 -10t12.5 4q18 16 41 42q26 30 49 81
q2 6 4 11q28 74 21 140q0 4 -1 5zM419 634q0 34 24.5 58.5t58.5 24.5t59 -24.5t25 -58.5t-24.5 -58.5t-59 -24.5t-59 24.5t-24.5 58.5zM463 634q0 -16 11.5 -28t28 -12t28 12t11.5 28.5t-11.5 28t-28 11.5t-28 -11.5t-11.5 -28.5z" />
    <glyph glyph-name="bat" unicode="&#xe829;" 
d="M936 323q-1 17 -8 39q-12 39 -39 81q-16 24 -42 53q-23 25 -56 52q-6 4 -9 7l-5 -9q-16 -31 -38 -54q-29 -30 -62 -41q-24 -8 -48 -5q-33 3 -63 20q-3 1 -4 5q0 8 -4 24q-1 2 0 3q16 21 14 50l-3 16q0 1 -2 1.5t-7 0.5h-2q-8 0 -16 -3q-12 -6 -22 -16q-3 -3 -5 -4l-6 1
q-14 2 -26 -1q-2 -1 -4 1q-10 10 -21 17q-9 4 -17 5h-12q-2 0 -2 -2q-4 -12 -4 -26q2 -25 15 -40q3 -5 1.5 -10t-3.5 -17v-2q0 -2 -1 -2q-21 -16 -47 -22q-18 -5 -35 -2q-26 1 -50 16q-19 10 -40 31q-24 22 -51 63l-2 2l-1 -2q-24 -21 -56 -60q-29 -37 -50 -77
q-24 -45 -36 -94q-2 -7 -4 -23v-2q37 17 82 25q32 6 61 5q40 -2 67 -16q33 -17 50 -47q5 -9 8 -17q1 -1 3 0q18 18 43 24q28 6 51 -11q18 -13 31.5 -35t25.5 -56q5 -13 10 -34l1 -1l3 10q10 37 23 65q11 23 25 40q17 19 36.5 25t41.5 -2q19 -5 37 -22l1 -1v2q12 21 25 35
q16 16 36.5 25.5t45.5 12.5q20 3 45 1q41 -3 85 -17l6 -2q21 -7 30 -11q1 -1 2 -1v15z" />
    <glyph glyph-name="bear-face" unicode="&#xe82a;" 
d="M795 732q-50 0 -87.5 -30t-48.5 -76h-322q-11 46 -49 76t-86 30q-38 0 -70 -18.5t-51 -50.5t-19 -70.5t21 -72.5t56 -51v-150q0 -95 51 -178q48 -79 130 -125q85 -48 181 -48t181 48q82 46 130 125q51 83 51 178v150q33 17 53.5 51t20.5 72.5t-19.5 70.5t-52 50.5
t-70.5 18.5zM316 445q0 16 11.5 28t28.5 12t28.5 -11.5t11.5 -28.5t-11.5 -28.5t-28.5 -11.5t-28.5 11.5t-11.5 28.5zM497 37q-35 0 -66 23.5t-49 63t-18 86.5t18 87t48.5 63.5t67 23.5t67 -23.5t48.5 -63.5t18 -87t-18 -86.5t-48.5 -63t-67.5 -23.5zM640 405
q-17 0 -28.5 11.5t-11.5 28t11.5 28.5t28 12t28.5 -12t12 -28.5t-11.5 -28t-28.5 -11.5zM429 283q-9 0 -16.5 -4.5t-10.5 -12t-1.5 -16t7.5 -13.5l68 -69q9 -8 21.5 -8t20.5 8l69 69q6 6 8 14t-2 16q-5 16 -27 16h-137z" />
    <glyph glyph-name="bear-tracks" unicode="&#xe82b;" 
d="M895 428q-105 88 -232 85q-39 -1 -68.5 -23t-42.5 -56.5t-3 -70.5q7 -22 14 -65l5 -24q7 -40 12 -60q7 -33 17 -59q19 -52 75 -67q37 -10 75 -9h16q86 2 112 81q10 28 14 42q14 49 20 78q9 44 9 81q0 23 -4 37q-5 18 -19 30zM327 426q-109 0 -212 -75q-29 -22 -32 -58
q-2 -30 1 -54q9 -73 46 -179q8 -21 24 -36q39 -37 101 -32q12 0 20 1q49 3 76 15.5t41 37.5q12 19 23 58q8 31 20 94q10 57 17.5 86t-5.5 64q-15 40 -47 60q-30 18 -73 18zM428 427q18 15 21 45.5t-11 49.5q-11 14 -24.5 13.5t-23.5 -15.5q-14 -20 -14 -46.5t15 -42.5
q19 -19 37 -4zM588 508q18 0 28 20q10 18 7.5 43t-16.5 41q-8 9 -19 9.5t-20 -7.5q-17 -16 -17 -44q0 -25 11 -43q6 -10 10 -14q7 -6 16 -5zM316 443q12 0 22 12t12 29v5q0 11 -4.5 24t-11.5 20q-9 9 -19 9.5t-18 -9.5q-21 -24 -14 -53q4 -17 13 -27.5t20 -9.5zM711 548
q18 34 -3 66q-10 16 -22.5 15.5t-23.5 -15.5q-12 -19 -11 -40q-1 -12 7 -27q11 -17 27 -17t26 18zM152 420q11 -9 22.5 -6t17.5 16.5t6 35.5l-3 26q0 3 -2 11q-7 20 -27 12q-14 -7 -21.5 -19t-9.5 -28q-5 -29 17 -48zM909 549q-11 6 -19 2.5t-11 -15t-5 -33.5q0 -19 4 -32
q6 -19 19.5 -22t27.5 11q11 12 12.5 30t-6 34.5t-22.5 24.5zM756 523q21 -3 31 20q16 31 -2 68q-7 13 -18.5 13.5t-20.5 -10.5q-14 -17 -16 -48l3 -16q3 -13 7 -18q5 -8 16 -9zM120 380q5 11 5 36l-1 10q0 17 -3.5 26.5t-10.5 12.5t-16 -1q-25 -11 -30 -42q-7 -34 16 -52
q11 -10 23 -7t17 17zM853 511q11 12 12.5 30.5t-6 35t-22.5 23.5q-21 11 -30 -12q-3 -8 -3 -24l-1 -10l1 -11q0 -15 2 -22q7 -17 20.5 -20t26.5 10zM225 441q12 -8 23 -5t16 16q3 7 4 22l1 6q0 31 -15 48q-7 9 -15.5 10t-17 -5.5t-13 -25.5t-0.5 -37q4 -20 17 -29zM910 571
q10 1 6 12q-5 20 -25 47l2 -15q2 -24 3 -35q1 -6 4.5 -7.5t9.5 -1.5zM90 485q14 -2 15 9v3q2 27 4 44q-20 -23 -25 -43q-4 -12 6 -13zM410 548q10 1 6 14q-5 19 -25 43l5 -47q0 -12 14 -10zM768 642q11 1 6 15q-7 19 -25 42q2 -18 4 -46q1 -13 15 -11zM590 635q13 -3 14 10
l6 48q-20 -24 -26 -43v-1q-1 -6 -0.5 -9.5t6.5 -4.5zM233 555q13 -2 13.5 12t4.5 42q-19 -19 -24 -38q-5 -15 6 -16zM164 532q13 -2 14 10l4 42q-18 -17 -24 -37v-1q-2 -6 -1.5 -9.5t7.5 -4.5zM836 618q7 1 7.5 5t-1.5 10q-5 18 -25 43l3 -21q2 -17 3 -26q0 -13 13 -11z
M310 563h2q5 0 7.5 1t2.5 6q0 21 -7 49q-11 -26 -13 -46q-2 -11 8 -10zM690 650q11 0 9 10l-3 11q-6 24 -11 37q-6 -22 -6 -49q-1 -6 2 -7.5t9 -1.5z" />
    <glyph glyph-name="bear" unicode="&#xe82c;" 
d="M888 383q7 -14 6 -24q-1 -13 -14 -22q-15 -12 -29 -8q-10 3 -23 18q3 -16 -4 -19.5t-20.5 2t-20 24.5t0.5 32q5 9 14 14.5t18.5 4.5t10.5 -6q1 -4 0 -11t-0.5 -10t0.5 -9q2 13 9.5 22t20.5 12q19 4 31 -20zM920 635q-4 -8 -10 -25l-1 -3q-6 -15 -15 -21.5t-25 -3.5
q-29 6 -49 -7q4 -1 9 -2l5 -1q3 -1 11 -2q11 -1 15 -2q7 -3 7 -10q0 -11 -12 -17q-8 -4 -23 -6q-31 -3 -56 -20q-21 -13 -39 -38q-12 -15 -31 -47l-8 -13q-19 -29 12 -69q14 -19 49 -50l5 -5q41 -36 44 -92q1 -27 -10.5 -40.5t-39 -18.5t-49 6t-23.5 34q-3 29 -21 50
q-11 13 -41 33q-39 25 -56 67q-16 37 -18 93q-20 -41 -14.5 -78t35.5 -68q17 -17 15 -29t-21 -21q-28 -13 -38.5 -32t-6.5 -51q4 -29 -6 -59q-10 -27 -31 -53q-14 -18 -10.5 -26.5t23.5 -15.5q22 -6 38 -25q9 -11 6.5 -18.5t-16.5 -8.5q-66 -5 -114 5q-14 3 -24.5 19t-12 35
t8.5 30q42 51 58 94.5t2.5 86t-53.5 73.5q39 -64 34 -121q-3 -49 -40 -98q-26 -35 -82 -86q7 -4 22 -9q26 -9 36 -19q8 -7 11 -11q4 -8 2.5 -15t-8.5 -9q-5 -1 -14 -1h-3q-52 -2 -77 -1q-48 2 -71.5 32t-13.5 76q7 32 4 55q-4 27 -24 50q-14 16 -23 46q-8 25 -15 35
q-11 15 -33 19q-10 1 -14 9t-1.5 17t12.5 14q22 11 35 31q10 15 20 43q11 33 45 52l63 39q45 28 71 54q33 33 47 75q42 122 173 142q13 2 39 10q17 5 26 7l5 1q18 4 24 9q8 9 4 29q-3 17 11 24q10 5 29.5 5.5t29.5 -6.5q13 -8 10 -25.5t5 -25.5q5 -5 21 -9l48 -13
q15 -4 23.5 -12.5t12.5 -24.5q6 -23 23 -28t37 11l2 2q6 4 10.5 5.5t9.5 -2.5q12 -8 5 -24zM688 678q-1 12 -9.5 20t-21.5 10q-10 1 -17 -5t-9 -16q-3 -25 27 -35q11 -3 21 6.5t9 19.5zM791 642q-4 5 -14 7q-6 1 -8 2q-9 4 -14 4q-8 1 -13.5 -4.5t-0.5 -11.5q14 -12 28 -11
q8 1 13.5 4t8.5 10zM874 318h-68q10 -24 32.5 -30.5t41.5 8.5l3 3q5 4 7 7t0.5 7t-4.5 4.5t-9 0.5h-3zM833 412h34q10 1 13 5t-3 12q-33 42 -98 54q-11 2 -20 -6q-5 -4 -14 -17q-6 -10 -10 -14l-8 -9q-10 -12 -14 -18q-5 -11 -1 -19q2 -5 12 -7q6 -2 20 -4t20 -4
q3 -1 7.5 0.5t7.5 6.5q9 13 24 17q11 3 30 3z" />
    <glyph glyph-name="bird-alt" unicode="&#xe82d;" 
d="M645 214q-123 167 -327 204q-21 4 -63 7l-16 1q-11 1 -10 -10q4 -79 19 -129q90 -287 381 -362q43 -10 86 -12q16 -1 21 0t6 7t0 24q-9 151 -97 270zM770 229q-3 103 -93 169q-69 51 -168 56q-5 0 -7.5 1.5t-2.5 6.5q7 150 98 235q15 14 49 29q-53 51 -118 60
q-134 15 -227 -105q-60 -79 -70 -191q-1 -5 0 -7.5t7 -2.5q175 -10 316 -114q150 -110 211 -285l1 -2q1 -7 5 -9v41q0 79 -1 118zM479 701q0 11 8.5 19.5t19.5 8.5t19.5 -8t8 -19t-8.5 -19t-19 -8.5t-19 7.5t-9 19zM557 573q31 14 70 1q16 -6 29 -21q8 -9 21 -30q8 14 12 36
q4 25 4 41q0 22 -5 40q-7 25 -24 46q-2 2 -4 2.5t-6 -0.5q-29 -11 -59.5 -47.5t-37.5 -67.5z" />
    <glyph glyph-name="bird-flying" unicode="&#xe82e;" 
d="M936 -32q-1 4 -3 10q-8 27 -13 40q-7 21 -17 40l-14 28q-19 40 -31 58q-11 16 -28 51l-10 20q-5 10 -9 14q-6 7 -15 10.5t-29 10.5l-7 2q-6 3 -18 7l-14 5q-42 16 -69 35q-10 7 -30 22l-10 8q-5 4 -6 7.5t1 9.5q1 3 1 10l1 7q0 7 2 19q2 5 7 7l7 3q8 3 12 6q8 4 13 3
t12 -7l2 -1q3 -2 5 -2q8 3 8 16v1q0 6 -3 10l-4 4q-3 3 -7 3l-6 2h-4l-2 1h-4l-1 1q-2 0 -3 1q-7 4 -11.5 11t-8.5 8q-29 13 -54 -2q-7 -5 -18 -15l-6 -5q-23 -20 -43 -6l-7 6q-17 13 -24 21q-27 30 -39 52t-35 67l-13 26q-4 8 -7 10l-15 10q-21 13 -31.5 18.5t-31.5 15.5
q-27 12 -40 19q-19 11 -62 24l-18 6q-8 3 -23 6q-20 5 -29 9q-15 6 -46 20l-19 9h-6l18 -32l8 -11q12 -19 22 -25q1 -1 2 -3l1 -1l15 -15l10 -10q3 -5 6 -6q8 -5 26 -15q1 -1 5.5 -2t4.5 -2q1 -6 10 -8l4 -1l12 -6q18 -8 27 -9t25 -8l6 -2q3 -1 9 -5l4 -3q12 -11 19.5 -14.5
t10.5 -13.5l7 -15q0 -2 2 -6l2 -5l3 -6t4 -5.5t4 -5.5l17 -36q3 -9 11 -19l4 -6l3 -6q3 -9 7 -12.5t8.5 -14.5t11.5 -14q3 -1 4 -9l2 -5q1 -2 4 -4l2 -2q0 -1 2 -4l3 -6q5 -6 6 -10l4 -12q1 -4 0 -13t-3 -12l-5 -8q-11 -17 -16 -27q-12 -28 -26 -44q-17 -21 -41 -31
q-4 -2 -4 -6q1 -8 5 -22l-24 -14q7 -13 9 -15t8 2l5 -5l8 -8q12 6 17 10l2 2q4 1 10 5q10 2 17 2.5t11 2.5t6 8q8 20 26 26q28 10 42 13q31 7 47 22q8 7 21 3l64 -22l36 -11q10 -3 30 -10l15 -5l4 -1q6 -1 9 -2l7 -3q7 -3 11 -4q25 -5 46 -16q8 -5 13.5 -13.5t14.5 -26.5
l27 -52q2 -3 8 -9l13 -13l9 -9q1 -1 3 -2t2 -2q5 -13 17 -17q3 -1 7 -5l5 -7q3 -4 5 -5q7 -6 22 -18l9 -7q0 -1 1 0v3q2 -4 3 -4t1.5 2.5t1.5 2.5q3 -15 15 -19q5 -2 5 5v1z" />
    <glyph glyph-name="bird" unicode="&#xe82f;" 
d="M938 611v-14q-2 -5 -4.5 -16.5t-4.5 -17.5q-22 -56 -79 -97q-59 -43 -146 -69l-16 -5q25 -1 44 3q67 10 132 55l50 37q5 5 9 2q2 -2 0 -8q-4 -16 -11 -37q-12 -48 -52 -76q-57 -37 -138 -29q-9 1 -29 4l-9 1l2 -1q2 -2 3 -2q48 -21 99 -15q15 2 44 7l8 1q5 1 7 -1.5
t-1 -6.5q-20 -30 -39 -39q-53 -30 -107 -1q-7 3 -18 12l-9 6q13 -29 43 -43q6 -3 20 -9l10 -5q3 -1 3.5 -3t-3.5 -4l-9 -5q-9 -5 -14 -7q-30 -10 -54 7q-8 5 -16 21l-4 7q-2 -2 -1 -6v-3q1 -8 9.5 -24t6 -21.5t-19.5 -10.5q-14 -4 -24.5 1t-15.5 18l-1 2q0 2 -2 2
q-2 -6 4 -18l2 -4q3 -8 -5 -11q-3 -1 -8 -2l-9 -2q-10 0 -15 -3q4 -6 14 -14l45 -37q4 -3 4 -5t-3 -5q-13 -11 -31 -13v0q-12 -1 -18 -3q-10 -2 -17 -8q-8 -8 -22 -8q-7 0 -19 -3.5t-18 -3.5h-17l-10 3q-10 3 -15 4q-21 0 -35 13q-5 4 -13 4q-24 -3 -46 16q-2 3 -2 4.5
t3 3.5l30 24l7 7q16 13 23 22l-21 2q-11 2 -13.5 6t1.5 15v1q4 10 1 18q-6 -20 -23 -26q-14 -5 -30 3q-7 4 -8.5 8.5t1.5 11.5l10 21q6 13 3 23l-8 -14q-14 -26 -45 -26q-11 -1 -22 4q-8 3 -20 10q-6 2 -6 5t5 4l5 2q29 12 41 22q20 16 27 33l-6 -4q-31 -25 -67 -28
q-30 -3 -55 10q-22 12 -42 37l-2 2q-5 7 -2.5 10t11.5 1h2q28 -6 47 -7q26 -2 48 1q30 5 54 17h-6q-29 -7 -64 -7q-64 2 -108 33q-27 20 -35 37q-16 30 -26 75v1q-2 4 0.5 6t6.5 -1h1q14 -10 20 -15q39 -30 72 -47q41 -22 81 -30q37 -6 52 -3l-9 3q-107 31 -172 87
q-42 37 -57 80q-3 6 -6 19q-2 10 -4 15v14q4 2 5 3q5 9 17 3l5 -2q15 -7 32 -19q9 -8 28 -23l5 -5q50 -43 98 -70q54 -30 112 -42q24 -6 19 -32q-3 -21 -9 -40q-6 -24 -8 -40q-1 -23 4 -41q13 -47 70 -69q0 3 -2 6l-1 3q-35 64 -26 123q5 33 23 52q3 2 5 2t4 -3
q9 -13 25 -18q12 -3 22 -14q7 -9 16 -28v-1q5 10 7 15q12 24 33 29q14 3 24 16q2 4 4 3.5t5 -3.5q22 -29 25 -71q1 -29 -13 -68q-6 -17 -20 -43q37 15 54 49.5t10 73.5q-2 12 -8 36q-6 20 -8 31q-3 17 2.5 24.5t22.5 11.5q42 9 81 27q54 24 120 80l12 10q33 27 53 37
q10 5 16.5 5t11.5 -8zM450 440q3 0 6.5 -3.5t5.5 -3.5q-2 14 -6 20t1 13q16 23 53 19q25 -3 35 -24q3 -6 0 -10q-5 -8 -7 -21l11 8q1 -7 -2.5 -14.5t-8 -10t-9.5 0.5l-10 8q-9 6 -19 6t-19 -6v-1q-2 -1 -5.5 -4t-6.5 -4t-7 1q-13 10 -12 26z" />
    <glyph glyph-name="birds" unicode="&#xe830;" 
d="M428 270q-2 -1 -4 0.5t-3 3.5q-19 53 -60.5 88.5t-95 47t-106.5 -5.5q-57 -17 -95 -62q-3 -3 0 -6.5t6 -2.5l2 1q62 20 123.5 6.5t109.5 -55t69 -102.5q2 -5 8 -3q62 18 123 3t107.5 -58t66.5 -104q0 -2 0.5 -3t2 -2.5t3.5 -1.5q5 0 5 4q15 60 -3 113.5t-58.5 90.5
t-93.5 50t-107 -2zM628 450q-2 -1 -4 0.5t-3 3.5q-17 46 -53.5 77.5t-83.5 41.5t-94.5 -4.5t-83.5 -55.5q-2 -2 0 -5t6 -2h2q54 17 108.5 5.5t96.5 -48t61 -89.5q1 -4 6 -4q55 16 109 3t95 -50.5t58 -91.5l1 -3q2 -3 5.5 -3t3.5 3q12 49 -3 100q-15 47 -51 79.5t-82.5 44
t-93.5 -1.5zM932 516q-10 32 -34.5 54.5t-57 30t-64.5 -1.5q-4 0 -4 3q-11 32 -36 53.5t-57.5 28t-64.5 -3.5t-57 -38q-1 -1 -0.5 -3t3.5 -2l2 1q37 12 74 3.5t66 -33.5t42 -61q0 -1 1.5 -2t2.5 0q37 11 74 2t65 -35t40 -63l1 -1q0 -3 3 -3t3 3q8 35 -2 68z" />
    <glyph glyph-name="bone" unicode="&#xe831;" 
d="M502 278q134 0 237 -32q10 -3 16.5 -7t12.5 -12q22 -32 60 -38.5t70 16.5t38.5 61t-16.5 70q-6 7 -6 13.5t5 14.5q24 33 17 71t-39 60.5t-70 15.5t-61 -40q-8 -12 -18 -14q-50 -17 -124 -28q-111 -14 -223 -3q-83 8 -148 30q-12 5 -19 14q-23 34 -62 41t-72 -17.5
t-37 -64.5t24 -73q4 -4 3.5 -7t-4.5 -7l-2 -2q-5 -5 -7 -8q-20 -32 -12 -69.5t39 -58.5t68 -15t59 36q6 8 14 14q6 4 17 8q101 31 240 31z" />
    <glyph glyph-name="bull" unicode="&#xe832;" 
d="M913 637v0q-12 7 -11 13q2 18 -8 24q-6 3 -23 3l-11 1q-10 0 -15 2q-32 13 -74 5q-50 -8 -64 -50.5t22 -76.5q24 -22 31 -36q18 -36 -17 -68q-14 -14 -22 -18.5t-16 -2.5t-23 12q-78 51 -122 116q-32 47 -60 89.5t-81 33.5q-85 -14 -163 -39q-22 -7 -35 -5
q-16 2 -31 16.5t-38 19.5t-45.5 -0.5t-34.5 -18.5h13q17 1 25 0q20 -3 31 -8q15 -8 20 -25t14 -24t29 -6q-15 -12 -25.5 -11.5t-17.5 13.5q-15 25 -44 29.5t-54 -14.5q7 -1 22 -1q20 0 29 -3q15 -4 24 -19q-13 -7 -15.5 -9t-0.5 -5q9 -14 7 -30q-1 -11 -10 -30q-5 -9 -2 -15
q10 -18 8 -38q-2 -14 -12 -36q-5 -10 -1 -13t13 -3q3 9 9 12.5t12 -2t18 -8.5q10 -3 14 -6q20 -3 27 -2.5t10 6.5t6 24q5 -20 7 -23.5t9 -0.5q27 10 35.5 33.5t-6.5 48.5q-2 5 -8 14l-5 8q33 -12 36 -51v-6q0 -5 0.5 -8t4.5 -4q13 -3 15 -14q2 -6 -1 -19l-3 -16
q-3 -21 -8.5 -29.5t-2.5 -13.5t13 -4l-3 -2q-4 -3 -5 -3q-12 3 -18 -3q-4 -3 -8 -14l-2 -7q-3 -9 1 -16q3 -3 11 -9l4 -2q6 -4 19 -12q19 -11 27 -18q14 -12 20 -27q10 -20 26 -11.5t20.5 24t-4.5 29.5q-6 8 -5 16.5t-2 10.5t-11 2q-11 0 -22 3q-19 5 -19 21q0 6 5 10
q3 2 11 3l3 1q62 16 83 83l2 9q3 19 11 28q4 -24 -3 -48q-5 -19 -19 -41q-11 -16 -8.5 -20t21.5 -5h10q27 -1 39.5 -7t18.5 -3.5t11 15.5q12 39 50 42q-2 -7 -9 -13l-3 -3q-20 -22 -27.5 -52t-0.5 -60t27 -51q30 -32 30 -67.5t-31 -66.5q-6 -6 -8 -9v0q-11 -13 -15 -21
q-6 -11 -1 -22q4 -7 12 -9q5 -1 16 -1h11q16 -2 23.5 4.5t6.5 23.5q-1 13 5.5 24.5t17.5 18.5l5 3q12 7 15 12q4 8 -6 21q-3 3 -3 11.5t5 11t8.5 0.5t7.5 -7l3 -4q14 -12 17 -31q2 -13 -2 -35q-1 -9 -6 -26l-3 -13q-6 -22 17 -24h1q33 -2 42 0q14 2 15 14t-9 42q-6 21 -4 35
q4 18 22 30q6 3 8.5 9.5t1.5 13.5q-21 -4 -39 3t-27 24q-7 14 -2 27q3 8 14 22l5 5q8 9 18 18q25 24 30.5 54t-7.5 62q-7 16 -4.5 24.5t15.5 18.5q41 35 43 69.5t-36 75.5l-1 1q-16 18 -23 29q-12 19 -5 38t29 27q19 8 52 6q11 0 17.5 -4t8.5 -14q5 -23 24 -27
q38 -10 65 -30q-4 21 -7 30q-6 14 -17 22zM169 483q-7 -1 -9 3.5t-1.5 10.5t4 12t9 7t8 -2.5t3.5 -10.5l1 -3q0 -15 -15 -17zM327 351q-1 -4 -4 -4.5t-8 0.5t-7 1q10 5 13 14q1 6 0 18q0 17 4 26q7 -25 2 -55zM286 277q-19 13 -24.5 19.5t-3.5 16t12 32.5q-11 -7 -21 -18
l-15 -18l-7 -10q-10 -12 -8 -21t16 -17l5 -3q17 -10 24 -17q12 -10 16 -23.5t9 -18.5q7 -6 19 1l4 3q14 8 17 14q6 10 -1 24q-4 9 -13 16q-5 5 -16 12zM178 404h1l-1 1v-1zM162 404q-6 -2 -9.5 -7.5t-2.5 -12t5.5 -9.5t11 -2.5t10.5 4.5t5 11q2 9 -4 16h-5q-8 1 -11 0z
M125 408v1v-1v0zM116 396q3 -5 8.5 -7t11.5 0q8 3 6 15q-1 6 -3.5 6.5t-7 -1t-6.5 -1.5q-1 -2 -5.5 -3.5t-5.5 -3t2 -5.5z" />
    <glyph glyph-name="butterfly-alt" unicode="&#xe833;" 
d="M446 468q15 30 36 38q-18 62 -50 122q-23 43 -52 80q-16 21 -26 31q-7 7 -16 7t-15 -6t-6.5 -15.5t5.5 -15.5q9 -9 25 -31q30 -39 52 -84q32 -62 47 -126zM370 239q19 0 37 10q2 94 18 161q-20 59 -62 105t-99.5 71.5t-122.5 25.5q-32 0 -55 -23t-23 -55v-107
q0 -51 25.5 -94t68.5 -68.5t94 -25.5h119zM162 418q-11 33 3 51q9 13 30 20q17 6 37 6q29 0 50 -24t21 -57q0 -45 -9 -63t-31 -18q-28 0 -52 15q-33 21 -49 70zM554 468q15 64 47 126q22 45 52 84q16 22 25 31q6 7 6 15.5t-6.5 15t-15.5 6.5t-16 -7q-10 -10 -26 -31
q-29 -37 -52 -80q-32 -60 -50 -122q21 -8 36 -38zM357 213h-113q-29 0 -49 -20t-20 -48q0 -52 26 -95.5t69.5 -69.5t95.5 -26q26 0 44.5 18.5t18.5 45.5v1q-20 71 -22 174q-20 20 -50 20zM356 68q0 -11 -8 -19t-19 -8q-33 0 -56.5 23.5t-23.5 57.5q0 11 8.5 20t20.5 9h48
q10 0 21 -9q0 -42 9 -74v0zM859 613q-65 0 -122.5 -26t-99.5 -72t-62 -105q16 -67 18 -160q17 -11 37 -11h119q51 0 94.5 25.5t69 68.5t25.5 94v107q0 32 -23.5 55.5t-55.5 23.5zM838 418q-16 -49 -49 -70q-23 -15 -52 -15q-22 0 -30.5 18t-8.5 63q0 33 20.5 57t49.5 24
q20 0 38 -6q20 -7 29 -20q14 -19 3 -51zM500 481q-17 0 -32 -35t-23.5 -94.5t-8.5 -129.5t8.5 -130t23.5 -95t32.5 -35t32 35t23 94.5t8.5 130.5t-8.5 130.5t-23.5 94t-32 34.5zM756 213h-113q-30 0 -50 -20q-2 -103 -22 -174v-1q0 -26 18.5 -45t44.5 -19q52 0 95.5 26
t69.5 69.5t26 95.5q0 28 -20 48t-49 20zM671 41q-11 0 -19 8t-8 19v0q9 32 9 74q11 9 21 9h48q12 0 20.5 -8.5t8.5 -20.5q0 -34 -23.5 -57.5t-56.5 -23.5z" />
    <glyph glyph-name="butterfly" unicode="&#xe834;" 
d="M937 623q-4 13 -24 23q-18 8 -44 11q-30 3 -65.5 -3t-68.5 -20q-54 -22 -97 -56q-55 -44 -90 -89q-5 -6 -11.5 -20t-11.5 -18v2q0 12 -5 15q-2 2 -5 3l-2 1l1 5q16 56 34 81q24 31 55 54l1 1q2 1 6 2t5.5 2t2.5 4.5t-1 4.5t-5.5 -1t-6.5 -6l-4 -4q-39 -29 -56.5 -55
t-33.5 -80l-2 -6q-6 4 -9 4t-8 -3l-1 4q-16 55 -34 81q-20 30 -60 58l-1 1q-7 9 -13 7q-1 -1 0.5 -4t3 -4.5t5.5 -2.5t6 -2l4 -3q31 -24 51 -52q19 -26 34 -83l1 -2l-7 -5q-6 -3 -6 -16v-1q-5 3 -16 22q-8 15 -13 23q-11 17 -28 34q-20 19 -56 48q-43 34 -97 56
q-33 13 -68.5 19t-65.5 3q-25 -2 -44.5 -11t-23.5 -22q-3 -11 8 -38t26 -47q7 -11 12 -26q3 -9 7 -27l2 -11q9 -35 18 -53q15 -30 38 -37q15 -5 40 -3q18 2 39 6l18 5l-1 -3q-1 -4 -5.5 -8.5t-13.5 -8.5q-16 -7 -27 -18t-20 -29q-9 -16 -15 -35t-6 -29.5t3 -22.5q1 -9 1 -14
q-2 -18 11 -31q6 -6 8 -18q1 -7 2 -11q2 -6 10 -13l7 -5v-6q1 -8 3 -14q4 -10 11 -16.5t23 -16.5q10 -8 14 -11q9 -8 15 -11q9 -5 23 -8q4 -1 12 -7.5t13 -9.5q8 -4 19 -4l10 1q14 1 19 2t16 5q18 7 32 42q8 21 19 72l1 3q8 35 13 50q7 19 16 25q-2 -15 -1 -40l2 -23l-1 -11
q-1 -11 1 -13q-1 -7 0.5 -16t2.5 -9q1 -7 4.5 -15.5t7.5 -8.5t7.5 8.5t3.5 15.5q2 0 3.5 8.5t0.5 16.5q2 2 1 13l-2 11l2 22q2 25 0 42q14 -8 29 -76l1 -3q11 -51 19 -72q14 -35 32 -42q7 -3 11 -3h10q12 2 23 1.5t20 4.5q5 3 12.5 11t12.5 9q13 2 22 7q5 3 13 10l3 2
q4 4 17 13t20 15.5t10 15.5q3 7 4 15v6l7 5q8 6 9.5 11t2.5 12q2 12 8 18q12 14 11 32q0 4 1 12q3 13 3 24q0 16 -21 54q-10 19 -20.5 30t-26.5 17q-9 4 -13.5 8.5t-5.5 8.5l-1 3l18 -5q21 -4 39 -6q25 -2 40 3q23 7 38 37q9 18 18 53l2 11q4 18 7 27q5 15 12 26
q15 20 26 47.5t8 37.5z" />
    <glyph glyph-name="camel-alt" unicode="&#xe835;" 
d="M62 460v6q22 20 60 29q52 12 89 59q8 10 22 33q17 27 28 40q3 3 6 11l1 4q5 14 7 42l1 14q4 34 16 49q6 8 22.5 13.5t31.5 4.5q8 -1 24 -5h2q36 -10 37 -37v-19q2 -13 9 -19t21 -7q22 -1 36 19l21 40q15 27 49 33q20 3 28.5 2t22.5 -10q20 -5 30 -19.5t8 -34.5
q0 -4 -2.5 -12.5t-1.5 -12.5q12 -78 47 -129q10 -16 20 -22q0 13 -2 19q-8 30 14 59q41 51 116 64q25 4 35.5 -8t1.5 -31q-2 -4 -1 -5.5t6 -3.5q19 -5 34 -12q23 -12 31 -24q13 -22 -3 -36q-8 -8 -20 -9t-22 5q-4 3 -6 2t-4 -5q-4 -8 -5 -23l-1 -27q-4 -46 -3 -70
q2 -76 -34 -132q-16 -25 -35 -39q-21 -16 -49 -21q-24 -4 -43 3.5t-28 27.5q-2 2 -4 2q0 -21 -24 -35q-38 -20 -35 -61q0 -17 -12 -28q-14 -13 -16 -37q-1 -40 5 -85q5 -39 41 -56q9 -4 24 -19q11 -11 0 -20h-25q-7 3 -22 3q-10 -1 -15 0q-21 2 -27 8.5t-2 22.5q1 4 0 5
t-6 1l-7 -1q-14 -2 -21 0q-14 3 -10 14q4 14 5 21v0q2 29 5 42q4 24 13 41q17 32 6 66l-3 9q-7 19 -6 29q1 18 -16 27q-23 13 -29.5 37.5t-5.5 48.5q0 5 -1.5 7t-6.5 3q-72 11 -117 38q-4 -19 -17 -55q-8 -25 -12 -37q-13 -46 -7 -77q14 -79 56 -126q14 -15 49 -37l6 -3
q7 -6 10 -9q4 -6 1.5 -12.5t-9.5 -8.5q-5 -1 -15 -1q-17 0 -51 2q-14 1 -11 15q5 17 -9 38q-13 18 -24 42q-7 15 -20 44l-4 10q-3 7 -8 22q-10 28 -18 40q-17 26 -4 54q9 19 9 48q0 16 -3 47l-3 27q-1 13 -4 19q-3 -2 -4 -5l-8 -22q-16 -43 -21 -65l-6 -22q-5 -17 -7 -26
q-3 -15 -3 -27q2 -30 -5 -54q-2 -8 -2 -25l4 -71q0 -4 2 -6q10 -4 14 -12q3 -6 5 -17v-3q3 -18 18 -26q10 -6 14 -11q6 -8 3.5 -13.5t-12.5 -7.5q-15 -5 -40 1q-10 2 -14 6.5t-4 13.5v10q0 13 -3 19q-9 26 -4 54q7 43 -5 71q-13 32 -9 87q3 31 -2 64l-3 23q-7 55 -6 82l1 18
q2 24 2 36q1 10 1 32q-16 -11 -27 -16q-15 -7 -30 -6q-6 1 -14 -7q-6 -5 -17 -16q-7 -8 -15 -11q-3 -2 -6 -1t-2.5 5t-2 7t-6.5 7z" />
    <glyph glyph-name="camel-head" unicode="&#xe836;" 
d="M783 721q2 -1 8 -1t9 -3l-6 -1q-7 -1 -12 -2l11 -3q16 -5 24 -9q-20 0 -30 -3l17 -10l-1 -1q-11 -1 -13 -3t-1 -13v-17q1 1 3 4t4 5q2 -34 -13 -52q-3 -4 -2.5 -6t4.5 -4q79 -54 137 -141q2 -2 2 -4v-1l-9 7q-12 10 -19 15l6 -12q10 -17 13 -27l-2 2q-9 7 -15 8
q20 -27 30 -57q20 -60 -1 -138q-7 -31 -21 -60q0 -3 -4 -6q0 55 -10 105q-4 -3 -6 -9v-1q-33 -71 -64 -108q-62 -75 -164 -101q-6 -2 -20 -4q106 50 151 141q-24 -26 -37.5 -38.5t-43.5 -32.5q-26 -17 -49 -25q37 32 58 60q27 36 37 76l-1 -2q-11 -16 -16 -23
q-10 -12 -20 -20l-4 -3q-7 -5 -12 -6l8 11q40 56 49 111q10 61 -26 117q-15 -28 -30 -46q-17 -22 -39 -36q24 38 32 68q-66 -105 -187 -141q9 -4 23 -0.5t24 9.5l19 11q42 25 65 34q37 13 81 16q-52 -17 -95 -43q-49 -32 -79 -66l3 2q29 16 44 23q24 11 47 14
q-37 -21 -63 -55q-18 -21 -30 -45l3 3q15 11 25 14q-20 -29 -28 -54q-11 -29 -7.5 -58t18.5 -58q11 -22 33 -49q-50 28 -87 90q-2 -8 0 -18q1 -6 4 -17l3 -9q-24 24 -40 58q-14 29 -22 67q-4 -4 -6 -14q-1 -3 -2 -10l-1 -5q-10 28 -7 64q5 42 29 83q-24 -7 -55 0l4 2
q12 6 18 10q9 6 14 15q-50 -31 -101 -25l14 7q20 9 29 15q15 10 23 24q-31 -21 -78 -18l3 2q13 8 17 12l2 2q10 12 11 19.5t-2 12t-10 5.5q-27 3 -46 11q-27 10 -61 -5q-26 -12 -43 -24q-16 -9 -42 -13q-38 -5 -65 1q-20 4 -26.5 16t2.5 31q2 5 8 14l3 6l-2 1q-6 1 -9.5 3
t-5.5 6t-1 14v6q6 42 35 68q2 2 3 5l1 2q24 71 107 82q11 2 34 3q30 2 45 5q34 8 63 25q8 4 22 17l11 10q19 16 37 23q20 9 42 8q14 -1 28 8q26 16 64 18q48 3 98 -15q8 -3 12 2q41 37 81 41l1 1h36zM404 394q0 -2 -1 -5v-3q-6 -29 23 -38l8 -1q48 -7 91 22l1 1q4 2 7 2
q-6 -11 -21 -24q20 8 37 23q10 9 28 30l3 3q-4 -16 -20 -44l-2 -4q31 10 57 33q18 16 43 48q-21 -51 -73 -94q19 8 38.5 22.5t33 40.5t14.5 55q1 31 -14 56l-4 6q-14 25 -23 36q-20 25 -48 55q21 -7 59 -25q-13 15 -32 28q-12 8 -37 23q16 -2 44 -11l10 -3q-19 17 -61 38
q16 -1 48 -11l6 -2q-6 5 -17 12l-7 5q6 0 13 -3q10 -3 29 -13l11 -6q4 -2 5.5 0.5t-3.5 6.5l-1 1q-7 7 -23 14q-22 10 -49 12q-48 5 -81 -17q-9 -6 -9.5 -8.5t5.5 -10.5v0q0 -1 -1 -1q-32 16 -64 3q-26 -9 -44 -33l6 4q15 9 23 13q13 6 24 8q-1 -2 -3 -3l-3 -2
q-29 -20 -40 -42q-3 -6 4 -6q12 0 21 4q15 5 34 -1q10 -3 29 -14l3 -2q15 -9 32 -6l-4 2q-20 8 -28 15q4 -1 13 -3l12 -2q5 -1 6.5 1.5t-2.5 6.5l-2 1q-18 15 -41 21l-24 3q19 7 36 3q15 -3 41 -19l13 -8q17 -11 27 -15q3 -1 3 -5v-1q-5 -24 -24 -46q-14 -16 -36 -23
q-17 -6 -42 -8q-17 -1 -50 6l-16 3q-33 6 -50 8q-27 4 -50 3q-2 0 -1 1q17 7 39 9.5t39 0.5q21 -2 61 -8q26 -2 45 8q8 5 14.5 12.5t7.5 14.5q-29 -28 -56 -28q-24 1 -40 22q19 -13 35 -14q20 -2 35 12q-5 0 -6 -1q-48 -7 -67 29q-2 3 -8 5q-22 5 -60 -3l-8 -1
q-35 -6 -55 -4l14 2q21 4 30 6q26 5 41 14q5 3 3.5 6t-5.5 1l-37 -9q-39 -11 -60 -13l-10 -1q-28 -1 -42 -4q-35 -9 -53 -25q-23 -19 -27 -52q0 -4 -6 -6q-26 -19 -35 -42q-7 -15 1 -28l1 3q2 11 4 16q3 8 8 14q-1 -8 -1 -23q0 -12 4.5 -16.5t16.5 -5.5q33 -1 72 10
q37 10 60 33q6 5 6 9.5t-7 9.5l-14 7q24 3 37 -5q11 -7 21 -18l9 -10q17 -20 29 -27q-5 0 -15 2q-21 8 -37 -8q-10 -10 -33 -18q11 8 16 13q8 7 12 15l2 3q4 5 5 8.5t-1 6.5q-5 6 -21 2t-33 -16q-26 -16 -58 -22l-5 -1q-19 -4 -27 -8q-14 -6 -20 -21q-2 6 1 16l2 5
q-6 -3 -10 -9q-2 -3 -5 -10l-3 -8l-1 8q-1 10 -2 15q-6 -3 -9 -12q-5 -14 5 -26t27 -11q25 1 61 18l20 9q-11 -13 -35 -28q7 0 10 1q26 4 49 24q32 23 72 20q36 -2 60 11l17 10q0 -4 -3.5 -9t-3.5 -8q16 0 37 12zM757 676v-2l-3 -6q-26 -49 -23 -92q0 -8 4 -9t7 5l1 1
q31 47 31 99q-1 19 -6 22.5t-22 -2.5q-42 -13 -49 -58l4 6q5 8 9 11q-2 -10 -2 -14.5t2 -12.5l2 6q9 25 18 34q-7 -17 -7 -32l5 10q5 9 9 14q11 15 20 20zM456 320h-12q-3 0 -8.5 2t-8 1t-4.5 -8q-1 -5 -2.5 -6.5t-3.5 -5.5l-12 -13q32 11 51 30zM689 670q-19 -15 -28 -32
l-1 -1q-2 -3 1 -5q8 -4 15 -16q2 18 3.5 28.5t9.5 25.5zM370 316q20 5 32 17q-8 3 -19 14q-1 -16 -13 -31zM435 559q-3 6 -5 16q-1 5 -7 4h-3q-4 0 -3 -5v-1q4 -11 18 -14zM366 434q39 -18 76 -15l-11 5q-20 10 -30 17q50 -12 89 0q-25 5 -44 17q33 -1 46.5 1t24.5 9h-8
q-9 -1 -14 0q-14 2 -22 7q100 16 99 109q9 -25 9 -52q-2 -42 -18 -72q-22 -44 -64.5 -59t-87.5 5q-15 6 -27 15zM139 495q7 26 28 46q13 11 35 8q11 -1 14 -14q3 -17 -10 -25q-10 -5 -19 -4q-15 1 -25 -1q-13 -2 -23 -10zM177 516q15 -2 23 2h1q7 2 5.5 6.5t-9.5 1.5v0
q-7 -1 -20 -10zM200 559q25 -2 37 -15q8 -9 8 -19.5t-8 -19.5q-15 -15 -40 -17q-8 -1 -23 -1l-15 -1q-23 -2 -48 -22q20 28 50 28l10 1q16 0 24 3q18 5 25 15q10 11 7 23.5t-16 18.5l-4 2q-5 2 -7 4zM368 560q16 -21 41 -37q-18 -1 -26 6.5t-15 30.5zM376 529q-4 0 -10 -0.5
t-7.5 0.5t-3.5 8l-2 5q-3 6 -5 18q15 -20 28 -31z" />
    <glyph glyph-name="camel" unicode="&#xe837;" 
d="M920 252q-16 8 -24.5 26t-4.5 37q10 46 1 82q-1 7 -5 16l-1 3l-8 -84q-5 -43 18 -73l3 -4q6 -10 10 -14q17 -17 22 -41q5 -20 2 -47q-2 -21 -4 -62l-2 -30q0 -14 1 -21q2 -11 7 -19.5t1 -16.5t-14 -10q-18 -2 -54 0q-7 0 -8.5 4.5t2.5 9.5l3 4q3 4 5 5q14 7 21 21
q5 11 6 28q2 26 1 77v25q0 22 -20 37l-7 5q-9 7 -14 10q-43 25 -59 57l-3 6l-2 2q-23 -23 -13 -51q2 -10 5 -14q17 -33 -9 -55q-4 -3 -6 -9q-4 -15 -16 -43q-9 -22 -13 -34q-6 -18 -8 -34v0q-2 -13 -5 -18q-4 -8 -13 -11q-25 -9 -50 5q-5 4 -4.5 8t4.5 7q10 8 20 14
q27 21 35 49q4 15 16 44l9 26q8 28 -8 50q-27 36 -21 84q1 0 1 1v0q1 22 -4 27t-27 0q-56 -12 -85 -15q-17 -2 -45 3q-22 4 -31 -5t-7 -31v-40l-2 -38q-3 -54 -4 -80q0 -16 2 -48l1 -24q0 -21 -14 -31t-34 -5q-15 5 -9 19l1 2q4 8 7 11q24 26 17 69l-14 104q0 6 -2 16.5
t-3 15.5h-4l-5 -35l-22 -101q-5 -28 -13 -84q-2 -15 -7.5 -21t-22 -6.5t-25.5 0.5q-11 2 -13.5 7.5t4.5 14.5q5 6 14 10q19 8 27 25q7 14 7 35v84q0 7 3 20q3 20 2 30q0 16 -3 49l-2 15q-1 24 -12.5 34.5t-34.5 9.5q-29 -1 -47 4q-25 6 -42 23q-57 58 -75 127q-5 17 -11 52
l-6 32q-2 7 -6 13.5t-9 10.5q-32 22 -69 18q-15 -2 -23 5t-6 20q2 8 7 11q13 5 38 15q28 12 42 17q24 9 45 12q10 0 14 2q14 4 22 3q10 -2 16 -14q1 -2 7 -4l7 -4q6 -2 7 -4t-1 -5.5t-4 -4.5q-6 -3 -6.5 -7.5t1.5 -12.5v-1q7 -25 19 -77l3 -14q11 -44 43 -65
q14 -10 24.5 -9.5t23.5 11.5l32 29l66 60l19 17q28 27 43 39q27 21 48 26q40 10 74 -5.5t53 -54.5q48 -57 113 -84q40 -17 60 -58q14 -30 22 -45q15 -31 9 -69q-2 -18 -1 -29q1 -16 6 -29q3 -7 4 -24z" />
    <glyph glyph-name="cat-alt-1" unicode="&#xe838;" 
d="M913 122q-40 2 -60 4q-46 4 -69 7q-40 6 -73 15l10 7q8 6 11 9q29 38 29 65q0 32 -37 60l-6 4q-15 15 -12.5 27.5t22.5 19.5q9 3 28 9l13 3q24 8 31 37q2 8 -3 12q-3 3 -11 5.5t-11 4.5l-4 3q-9 5 -12 9q-23 31 -71 31q-19 0 -37 12l-4 3q-17 13 -25 17q-16 6 -26 -1
t-10 -21q1 -9 6 -28l5 -17q2 -6 3 -10q0 -5 -3 -11q-13 -22 -1 -56q6 -18 15 -32q5 -8 3 -14q-2 -3 -8 -7.5t-8 -7.5q-4 -6 -7 -6t-6.5 3t-5.5 4q-19 7 -55 26q-39 21 -60 28q-38 12 -72 13q-36 0 -70 -14t-59 -56q-28 -47 -26 -114q1 -12 -3.5 -16t-16.5 -3q-40 4 -67 27.5
t-31 58.5q-4 42 19 79t60 49q69 23 163 25q40 1 66 5q36 5 64 19q32 16 50 43.5t17.5 58.5t-20.5 58t-57 38.5t-74.5 3t-60.5 -34.5q-27 -31 -26 -69v-3q0 -10 1 -15q3 -7 10.5 -8.5t11.5 3.5q3 3 6 11l2 5q3 7 7 19q16 37 55 49q26 9 49.5 1t36.5 -27.5t9 -44.5
q-4 -21 -23 -37.5t-46 -20.5q-30 -5 -91.5 -7.5t-91.5 -7.5q-72 -13 -114 -40q-52 -35 -72 -98q-13 -39 -4.5 -76t36 -63.5t68.5 -35.5q33 -6 63 -5h4q6 0 9.5 -1t6.5 -5q5 -8 15 -11q7 -2 19 -2h46q94 -1 141 1h6q13 -1 18 1q9 5 7 21q0 1 4 3l6 3q25 4 42 5q22 1 41 -4
l2 -1q6 -1 9.5 -3t5.5 -6q5 -11 16 -15q8 -3 22 -4q131 -5 262 0h5q9 0 12 2q6 3 5 11q-1 19 -24 21z" />
    <glyph glyph-name="cat-alt-2" unicode="&#xe839;" 
d="M737 333q-80 3 -114 -52q-33 -54 -2 -112q13 -25 42 -41t53 -12h1q8 1 12 3q6 3 8 9.5t-3 11.5q-2 2 -10 6l-17 9q-15 7 -22 12q-33 22 -24 63q4 19 17.5 30t33.5 13q35 4 62 -15.5t37 -56.5q13 -48 -9 -96.5t-71 -82.5q-52 -36 -123 -47q-67 -10 -139 3.5t-135 48.5
q5 4 12 4q4 1 11.5 0.5t11.5 -0.5l118 3q7 1 10 3q6 2 7 9q1 13 -8 24q-5 7 -13 9q-5 2 -16 3l-64 5q20 35 36 62q32 51 16 93q-7 19 0 28q5 7 22 10q5 -53 24 -108q16 -43 45 -99q12 -25 31 -34t46 -7h8q10 0 15 1q7 4 7 14q0 13 -7 21t-21 9q-17 1 -26 10t-12 27
q-1 14 -8 43l-3 14q-13 54 0 94q13 44 57 76q18 13 30 36q9 16 18 44q19 57 -18 94q-9 10 -25 30q-18 23 -13 37t34 21l15 3q13 2 20 4q34 10 44 48q2 11 -4 16q-4 4 -14.5 7.5t-13.5 6.5l-3 2q-13 9 -17 15q-22 32 -58 32q-61 1 -117 40l-2 2q-11 6 -17 8q-10 2 -17.5 -3.5
t-8.5 -16.5q0 -7 2 -21v-2q1 -6 6 -20q5 -17 7 -25q2 -13 -1 -21q-15 -39 -5 -76q7 -30 33 -66q-16 -15 -32 -18q-14 -2 -29 4q-10 4 -28 15l-5 3q-44 28 -96 32q-60 4 -108.5 -32.5t-72.5 -104.5q-30 -86 -14 -181q16 -93 70 -170q56 -80 137 -119q147 -72 309 -46
q87 15 145 61q61 48 88 129q18 55 5.5 105.5t-50 83t-90.5 35.5z" />
    <glyph glyph-name="cat-alt-3" unicode="&#xe83a;" 
d="M627 280q-52 25 -76 71q-20 36 -23 68q-5 72 11 121q9 30 22 45q4 5 6.5 5t6.5 -6l16 -25q18 -26 26 -40q4 -6 8 -7.5t12 0.5q21 6 35 7q20 2 37 -3q4 -1 13.5 -2.5t14.5 -3.5t12 6l2 2q36 38 55 57l2 3q5 6 8.5 4.5t4.5 -8.5v-4q5 -43 7 -64q2 -36 1 -64
q-4 -83 -47 -126q-32 -31 -68 -39q-12 -4 -16 -8.5t-6 -17.5q-4 -24 -16 -70l-19 -79q-2 -11 -9 -35q-6 -25 -9 -38q-7 -36 -21 -73q-10 -26 -20 -35.5t-17.5 -7t-12 15t-5 37t2.5 71.5q2 36 2 54q1 22 -8 44q-8 15 -24 15q-8 0 -13 -3.5t-10 -10.5q-10 -19 -18 -57
q-3 -17 -9 -52q-10 -56 -17 -84q-2 -8 -10 -22q-2 -3 -5.5 -5.5t-7.5 -1.5q-7 0 -11 9q-9 19 -13 49l-5 40q-6 39 -8 59l-3 29q-3 39 -6 58q-4 27 -12 42q-10 18 -26 17q-9 -1 -14 -8q-3 -4 -6 -14q-11 -33 -15 -90l-7 -130q-1 -18 -3 -27q-2 -15 -8.5 -25t-14 -10.5
t-14.5 8.5q-11 15 -18 41l-16 64q-10 36 -14 54l-16 75q-6 24 -8 40l-4 23q-6 31 -8 46q-8 52 -9 81q-1 45 8 81q7 28 19 50q2 4 2 6t-3 5q-21 21 -31 51q-8 25 -9 60q-2 57 29 103q29 42 79 65q63 29 141 18q57 -9 97 -60l1 -2q9 -10 12 -15q5 -10 4 -19t-3 -13
q-2 -7 -8.5 -10t-11.5 -1q-3 1 -9 4l-2 2q-5 4 -16 12q-16 14 -25 19q-34 21 -88 16q-65 -6 -95 -74q-18 -39 0 -80q4 -10 8 -11t12 5q50 36 107 29q33 -3 58 -13q10 -3 7 -13q-14 -48 -10 -119q6 -96 86 -139q25 -15 71 -24q7 -2 11 2z" />
    <glyph glyph-name="cat-dog" unicode="&#xe83b;" 
d="M671 122q14 -23 11 -56q-2 -18 -17 -21l-4 -1q-9 -2 -12.5 1.5t-2.5 7t4 8.5l1 2q10 20 4.5 36t-25.5 24q-22 10 -32 17q-17 10 -26 25q-6 9 -12.5 7.5t-8.5 -11.5v-2q-1 -8 -1 -26q-1 -39 -39 -79q-8 -8 -19 -8q-7 1 -9.5 5t1.5 10q10 14 16 20q12 12 11 28q0 10 -8 29
l-1 2q-10 27 -40 24l-11 -1q-15 0 -22 -2q-20 -6 -24.5 -16.5t4.5 -28.5l1 -2q8 -16 11 -24q5 -14 5 -26t-9 -18t-21 -2q-6 2 -7 6t4 8q15 11 4 27l-37 52q-7 8 -20 8q-42 0 -76 -11q-28 -10 -29 -36q0 -8 -3 -12l-1 -1q-6 -6 -9.5 -5t-4 2.5t-0.5 5.5v2q-3 45 40 71
q21 12 27.5 31t-1.5 40q-4 10 -10.5 14.5t-17 2t-24.5 -0.5q-12 2 -16.5 10.5t0.5 19.5l2 5q5 13 9 19q7 9 18 12q4 1 5 3.5t1 6.5q-1 8 2 11q9 -2 22 -14l17 -17q10 -9 15 -13q45 -34 92 -7q76 45 140 21q25 -9 41 -9q21 -1 41 11q17 10 39 3q13 -5 37 -20l26 -18
q28 -19 43 -28q25 -14 46.5 -5.5t30.5 36.5t-11 47q-23 20 -53 14q-16 -5 -19 -21l4 -1q12 -2 16 -5q7 -4 6 -15q-1 -8 -12.5 -13t-20.5 -3q-14 4 -21.5 16t-6.5 26.5t10 25.5q13 15 41.5 19t54.5 -6q23 -9 36 -27t12 -40q0 -29 -17.5 -51t-44.5 -30t-54 2q-31 12 -72 43
q-20 16 -32 21q-22 10 -39 2q-15 -7 -17 -15t5 -23q34 -73 64 -119zM236 359q1 5 8 -1l2 -1q15 -8 31 -21q10 -8 28 -25q25 -21 46 -24t50 13q84 48 170 8q6 -4 10.5 -3t11.5 5q40 25 80 8q10 -4 31 -15l9 -5q-11 57 45 78q-25 38 -69 60q-81 41 -185 28q-65 -8 -113 2
q-57 12 -99 51q-30 27 -44 45q-21 27 -26 57q-4 18 -20 38h-4q-13 -24 -13 -41q0 -8 -3 -11t-11 -6q-38 -9 -44 -35q-2 -9 -8 -16q-5 -4 -14 -10q-20 -10 -30.5 -13t-12 -8.5t5.5 -13.5q21 -26 59 -26q18 1 27 -15q30 -52 72 -104l1 -2q3 -5 5 -5t4 8zM787 266q2 -1 5 -4
q7 -6 12 -7q7 -2 13 4q9 9 11.5 20.5t-2 23t-15.5 15.5q-7 3 -22 4q20 -23 5 -44q-1 -1 -4.5 -3.5t-4.5 -4.5t2 -4zM813 184q-3 4 -6 6t-8 2q-42 0 -79 26q-14 9 -40 28l-20 14q-9 6 -15 8q-9 2 -17.5 -1t-10.5 -7.5t3 -12.5q20 -36 63 -59q36 -19 36 -61v-2q-1 -14 -4 -19
q-4 -10 -15 -13q-4 -1 -4.5 -15.5t3.5 -16.5q8 -4 26 4t20 17q9 32 11 50q2 29 -5 56q47 -37 70 -77q7 -13 4.5 -19t-16.5 -11t-12 -16q1 -5 4 -6.5t8 -1.5h2q21 -1 40 3q17 3 21 12t-5 23q-11 19 -33 55zM928 273l-15 6l-10 4q-5 2 -8 1t-4 -7q-1 -16 -13 -36q13 -1 30 8
q10 5 27 18l3 2z" />
    </font>
</defs>
</svg>
